&title=虚空の夢
&artist=ak+q feat. Sennzai
&first=-0.02
&des=Taxchan
&des_5=Taxchan
&clock_count=4
&lv_5=13
&inote_5=(162){4},{8},,,,,,,,,,,,,,6,
5,4,3,{2}2h[1:2],
,7>5q6[8:17],
{8},,,,,,A1,A2,
,,,,,,,,3,
4,5,6,{2}7h[1:1],
,3p1[1:1],
6,1q6[2:1],
{8},,,8,,6,1,2,
{1}5/3h[1:1],
4h[1:1],
5h[1:1],
6h[1:1],
2p8[4:3],
7q1[4:3],
3q6[4:3],
8p5[8:5],
{4}Cf,4,4,4,
5,5,5,5,
6/1-4[2:3],6,6,6,
5,5,5,5h,
{8}3,3,{4}2/4,{8}6,6,{4}5/7,
{8}2,2,{4}1/3,{8}7,7,{4}6/8,
{8}1h[16:1],2h[16:1],3h[16:1],4h[16:1],5h[16:1],6h[16:1],7h[16:1],8h[16:1],
{16}1,8,1,8,2,7,2,7,3,6,3,6,{32}B2,B1,B8,B7,B6,B5,B4,B3,
{1}B2/8w4b[2:1],
{4}2-5[8:1],6-8[8:1],4/6-2[8:1],1-4[8:1],
8<6[8:1],5-8[8:1]*-2[8:1],5,{8}3,{24}5x,4x,5x,
{4}4x>1[8:1],8<5[8:1],2/8-4[8:1],6-2[8:1],
5-3[8:1],1-4[8:1]*-6[8:1],1,4x/6x,
7-4[8:1],3-1[8:1],5/3-7[8:1],8-5[8:1],
1>3[8:1],4w8[8:1],4,{8}6,{24}4x,5x,4x,
{4}5x<8[8:1],1>4[8:1],7/1-5[8:1],3,
{16}2,7,2,7,1-5b[16:1],8,2,7,{2}1x,
{4}8b/1b-3-6[8:3],1,7,{16}5<8[0.3704##0.1852],,{8}5-2[8:1],
,,1>4[8:1],1-6[8:1],,,3-7[0.3704##0.1852],{16}7-3[0.3704##0.1852],,
,,,,,,,,{8}7>1[8:1],1>3[8:1],3<5[8:1],5<7[8:1],
,,,,1s5[8:3],1,A7,A6,
,,{4}8,4qq3[4:1],{8}6,6,
{4}5pp6[4:1],{8}3,3,{4}4p5[4:1],5<4[8:3],
,,7<4[8:1],1,
{16}2,4,2,4,{8}2,{16}7,5,{8}7,{16}2,4,{8}2,4/5,
{4}5-1[8:1],1>3[8:1]*<7[8:1],{8},,6,5,
{1}4qq1[2:1]*pp7[2:1],
{4}4-8[8:1],8<6[8:1]*>2[8:1],{8},,5,4,
{4}3-6-1[16:5]*-6-2[16:5],,,7>5[2:1],
{8}1h[8:3],,,,,2,5,6,
{2}7h[4:1]/2<4[2:1],{4}5,8,
{8}3b/7b,,,1b/5b,,,{4}2b/6b,
{16}5,4,{8}3b/6b,{4}3b/6b,{8}1b/8bw4[8:1],7b/2b,{4}8b<8[1:4],
{1}Cf,
{2},1h[8:3],
8h[8:3],7h[8:3],
{8},,,5,,4,{4}4>4[1:4]*>4[1:4],
{1}4,
{2},5h[8:3],
4h[8:3],3h[8:3],
{8},,,,,,,,8q6[8:3],
,,6q4[8:3],,,{4}4V68-2[2:1],
,,{2}C,
{8}1p3[8:3],,,3p5[8:3],,,{4}5V31-7[2:1],
,,{2}C,
{4}8q5[16:5],,,2qq3[4:3]/6qq7[4:3],
,,,,1p4[16:5],
,,5pp5[4:3]*qq5[4:3],
,,,,Cf/B8/B1,
2,3,4,
5,{8}6,5h[8:1],,4/3h[8:1],,5/2h[2:1],
{4}4,{8}5,6pp1[8:3],{4}4,3xh[8:1],
4h[8:1],5h[8:1]/1h[8:1],4h[8:1]/8h[8:1],7/3h[8:1],
{8}6s2[2:1],2,3,3,4,4,5,5,
4z8[2:1],4,8,8,7,7,6,6,
{16}1xh[16:1],7,2xh[16:1],7,3xh[16:1],7,4xh[16:1],7,5xh[16:1],7,6xh[16:1],7,8xh[16:1],7,1xh[16:1],7,
{4}1x>1b[2:1],{32},,,,,,,,,,,,,,,,B2,B3,B4,B5,B6,B7,B8,B1,
{2}6bxh[2:1]/B2f,Cfh[2:1],
{4}5<8-4[16:5],4/5,{8},2,{4}5/3,
{8}1>4-8b[16:5],1,{4}7h[8:1],{8},6h[8:1],,5/1,
{4}5<8-4[16:5],2/5,{8}1,2,{4}3/6,
{8}1>4-8b[16:5],1,6,5h[16:1],,5,{4}1/6q7[8:3],
{2}6,{16}1,2,3,4,8,7,6,5,
3,2,1,8,4,5,6,7,4,3,2,1,5,6,7,8,
{4}3-1[8:1],{8}3,4,5,{16}2,4,{8}3,{16}7,5,
{8}6,6,{4}4/3h[16:3],{16}B3/E5,B5/B2,{8}B6/E2,{4}8w4b[8:1],
8,{8}6h[8:3],5>1[4:1],,5,8-3[8:1],7,
{4}6/8<5[8:1],{8}8,4>1[8:1]*-7[8:1],,4,,8,
{4}7/1,{8}2h[8:3],1<5[4:1],,1,4-7[8:1],3,
{4}2/4>1[8:1],{8}4,8<5[8:1]*-3[8:1],,8,,4,
{4}3/5,{8}5h[8:3],4>8[4:1],,4,7-2[8:1],6,
{4}5/7<4[8:1],{8}7,3>8[8:1]*-6[8:1],,3,,7,
{4}6b/8b,{8}4,6b/2b,2b/6b,{16}3,3,,,6,6,
{4}B8/B1/Cfh[1:1],,,8-6b[8:1],
8b-4[8:1],{8}8-6[8:1],{16}1,2,{4}3h[8:5]/8-4[8:1],8-6[8:1],
8-4[8:1],{8}4/8-6[8:1],3,{4}2h[8:1]/8-4[8:1],{8}1/8-6[8:1],{16}1,2,
{4}3h[4:1]/8-4[8:1],{8}8-6[8:1],{16}1,2,{4}3h[8:7]/8-4[8:1],8-6[8:1],
8-4[8:1],8,{16}5,4,{8}6,{16}1-3[8:1],8,{8}2,
{4}6h[4:1]/1-5[8:1],{8}1-3[8:1],{16}8,7,{4}6h[8:5]/1-5[8:1],1-3[8:1],
1-5[8:1],{8}5/1-3[8:1],6,{4}7h[8:1]/1-5[8:1],{8}6/1-3[8:1],7,
{4}8h[4:1]/1-5[8:1],{8}1-3[8:1],{16}8,7,{4}6h[4:1]/1-5[8:1],1,
{8}4b/B7f/E7/B6/E8/A7,,,8b/B3f/E3/B2/E4/A3,,,{4}4bw8b[8:1],
4b,6/2,{8}3/4,5/6,4/7,{16}7,6,
{4}5/4<7[8:1],{8}4/2,{16}2,3,{4}4/5v2[8:1],{8}5/7,{16}8,7,
{4}6h[4:1],{8}3,4,2/5,1/6,8/7-4[8:1],6/1,
{4}7/8-3[0.3704##0.1852],{8}6/8-5V37[0.3704##0.5556],,{2}3x/8,
{8}1-5[8:1],1,7-3[8:1],7,4-1[8:1],4,6-3[8:1],6,
2-5[8:1],2,{16}E6,E7,E8,E1,{4}E2/4p8[8:1]*q8[8:1],4,
{16}7,5,{8}6,{16}2,4,{8}3,{16}7,8,{8}6,{16}2,3,{8}1,
2h[16:1]/6h[16:1],3h[16:1]/7h[16:1],4h[16:1]/8h[16:1],5h[16:1]/1h[16:1],{4}6h[16:3]/2h[16:3],{16}6/2,5/1,4/8,7/3qq5b[16:25],
{1}2bx/6bxpp4[2:3],
{8},,,,,,,,2h[8:3],
,,3h[4:1],,,,,{2}4h[2:1],
7,
{1}6-2[4:5]/5-8-3[16:25],
,4bxh[1:1]/8h[1:1],
E
