&title=attack in the minor key
&artist=Mr.T
&first=0
&des=黄瓜味Hane
&lv_5=13+
&lv_6=13+
&inote_1=
&inote_2=
&inote_3=
&inote_5=(164)
{1},
{8}
3,4,5,6,3,4,3,5,
2,5,3,5,2,3,4,5,
6h[4:1],,2h[4:1],,3h[4:1],,4h[4:1],,6h[8:3],,,
{16}
4,5,3h[2:1],,,,,,,,
6,,4,5,3,,2,,3,5,4,6,1b,,,,
{4}
2-4[12:1]/4h[8:1],5h[8:1],4-6[12:1]/6h[8:1],7h[8:1],
7-5[12:1]/5h[8:1],4h[8:1],5-3[12:1]/3h[8:1],2h[8:1],
1h[8:1]/4-8[8:1],2h[8:1],3<6[8:1]/6h[8:1],7h[8:1],
5-1[8:1]/8h[8:1],7h[8:1],7>2[8:1]/2h[8:1],3h[8:1],
{8}
3-5[8:1]/4,6,7,,6-4[8:1]/4,3,2,2,
3/4-8[8:1],5,6,,6/1-5[8:1],2,3,3,
{16}
2h[16:1],,5,4,6,5,6,5,7h[16:1],,4,5,3,4,3,4,
,,2,,1h[4:1],,,,4,,,5,,,6,,
{16}
7/3-6[8:1],,,6,,,8,,7v2[8:1],,,3,,,1,,
8v1[8:1],,,,6,,7,7,2h[16:3],,,3h[16:3],,,1,,
2-4[12:1],,,,5,,6,6,4-6[12:1],,,,7,,,,
6-8[12:1],,,,1,,2,2,7h[16:3],,,6h[16:3],,,5,,
2-7[8:1],,,7,,,5,,6v3[8:1],,,2,,,4,,
5v4[8:1],,,,7,,8,8,3h[16:3],,,5h[16:3],,,2,,
3-5[12:1],,,,6,,7,7,5-3[12:1],,,,6,,,,
6h[16:1],,5h[16:1],,4h[16:1],,3h[16:1],,2h[16:1],,3h[16:1],,4h[16:1],,5h[16:1],,
2/6>3[8:1],,,3,,,1,,2q7[8:1],,,6,,,8,,
1v8[8:1],,,,3,,4,4,7h[16:3],,,1h[16:3],,,8,,
2<7[8:1],,,7,,,5,,6q3[8:1],,,2,,,4,,
5v4[8:1],,,,7,,6,6,3,,4,,5,,6,,
5-1[8:1],,,6,,,4,,4-8[8:1],,,3,,,5,,
7-5[12:1],,,5,,,4,,2-4[12:1],,,4,,,5,,
6h[4:1],,7,,4h[4:1],,8,,5,,3,4,2,,1h[4:1],,
5,,6,,
{16}
7h[4:1],,5pp4[8:3],,4,,3,,2,,1,,
2-4[16:3],,,,,,1,,1-5[4:1],,,,,,3,,
4-2[16:3],,,,,,6,,5-1[16:3],,,,4,,3,,
2h[16:3],,,3h[16:3],,,4,,6h[16:3],,,5h[16:3],,,4,,
3<6[4:1],,,,,,7,,8,,1,,2,,3,,
4-6[8:1],,,5h[16:3],,,,,4-6[8:1],,,5h[16:3],,,,,
4-6[8:1],,,4h[16:3],,,,,3-6[8:1],,,2h[16:3],,,,,
1-5[8:1],,,,,,6,7,8h[16:3],,,2h[16:3],,,5,,
2,4,2,4,3,5,3,5,
{24}
2,3,4,
{16}
6,6,3,5,3,5,
,2/4,,,5/7,,,1/3,,,8/6,,1b,,5,,
{16}
2/4-8[8:1],,,,4/5,,6,,7-5[12:1],,8,,1-3[12:1],,8,,
4-8[8:1],,,5,4,,6,6,1,,1,,8/2,,7,,
6/4-8[8:1],,,,3/4,,2,2,7-5[12:1],,6,,1-3[12:1],,2,,
4-8[8:1],,,5,4,,6,6,1,,1,,2/4,,5,4,
6-4[12:1],,,,2-6[8:1],,,,6,,7,,8,,7,,
5-7[12:1],,,4,5,,1,,2,,2,,3/5,,6,5,
7h[4:1],,4,,3,,6,5,7,,8,,1,,2,,
3,5,3,5,4,6,4,6,
{24}
3,4,5,
{16}
7,7,4,6,4,6,
7/5-1[8:1],,,,4/5,,3,3,8-6[12:1],,7,,2-4[12:1],,3,,
5-1[8:1],,,6,5,,7,7,2,,2,,3/5,,6,5,
7h[4:1],,5,,4,,3,4,2h[8:1],,3h[8:1],,4h[8:1],,5h[8:1],,
6>8[4:1],,,7,7qq3[4:1],,,,,,,,8,,,,
1,,3,,4-8[8:1],,5,,7,,5,,4-8[8:1],,3,,
1,,3,,4qq5[4:1],,5,,7h[8:1],,,,8-4[8:1],,7,,
6>3[8:1],,,,2-6[8:1],,,,1,,8,,7,,5,,
2,4,2,4,3,5,3,5,
{24}
2,3,4,
{16}
6,6,3,5,3,5,
2,3,4,5,7,6,5,4,3h[16:1],,4h[16:1],,5h[16:1],,6h[16:1],,
4/7p4[4:1],,,,,,,,,,,,,,4-8[8:1],,
3-1[12:1]/5,,,,,,,,5-7[12:1]/7,,,4-8[8:1],,,2,,
2-6[8:1],,,,,,8,,5-1[8:1]/7,,,,8b,,7,,
2/6,,3,,4/5,,3,4,2h[16:3],,,4h[16:3],3,,2,,
1-3[8:1],,,5-7[8:1],1,,6,,8-2[8:1],,,4-6[8:1],8,,5,,
1-5[8:1],,,,6,,7,7,4h[16:3],,,5h[16:3],3,,2,,
6-4[8:1],,7,,3,,2,2,4-7[8:1],,5,,2,,1,,
2,4,3,5,4,6,5,7,
{24}
4,3,2,
{16}6,6,3,5,4,6,
5-2[8:1],,,6-8[8:1],5,,7,,1>4[8:1],,,7-1[8:1],1,,6,,
5-1[8:1],,,,6,,7,7,2h[16:3],,,5h[16:3],2,,3,,
4>1[8:1],,,6-4[8:1],4,,7,,2<7[8:1],,,4-6[8:1],2,,5,,
1-5[8:1],,,,8,,7,7,3,,4,,5,,6,,
7-5[12:1],,,5-1[8:1],7,,1,,2-4[12:1],,,4-8[8:1],2,,8,,
7V15[4:1],,,1,7,,5,,2V84[4:1],,,8,2,,4,,
6V47[4:1],,7,4,6,,3,,2V48[4:1],,1,4,2,,5,,
6V41[8:1],,7,1,6,,2,,3,,4,,5,,6,,
2h[8:1]/7h[8:1],,,1h[8:1]/4h[8:1],,,8/5,,3h[8:1]/6h[8:1],,,8h[8:1]/5h[8:1],,,1/4,,
2/6h[4:1],,,,1b,,2,2,1h[8:1]/3h[8:1],,,7h[8:1]/5h[8:1],,,1/8,,
{12}
2,3,2,3,4,3,4,5,4,5,6,5,
6>8[2:3]*p8[2:3],,,
&inote_6=(164)
{1},
{8}
3,4,5,6,3,4,3,5,
2,5,3,5,2,3,4,5,
6h[4:1],,2h[4:1],,3h[4:1],,4h[4:1],,6h[8:3],,,
{16}
4,5,3h[2:1],,,,,,,,
6,,4,5,3,,2,,3,5,4,6,1b,,,,
{4}
2-4[12:1]/4h[8:1],5h[8:1],4-6[12:1]/6h[8:1],7h[8:1],
7-5[12:1]/5h[8:1],4h[8:1],5-3[12:1]/3h[8:1],2h[8:1],
1h[8:1]/4-8[8:1],2h[8:1],3<6[8:1]/6h[8:1],7h[8:1],
5-1[8:1]/8h[8:1],7h[8:1],7>2[8:1]/2h[8:1],3h[8:1],
{8}
3-5[8:1]/5,6,7,,6-4[8:1]/4,3,2,2,
3/4-8[8:1],5,6,,6/1-5[8:1],2,3,3,
{16}
2h[16:1],,5,4,6,5,6,5,7h[16:1],,4,5,3,4,3,4,
,,2,,1h[4:1],,,,5,,,6,,,7,,
{16}
6/2-7[8:1],,,7,,,5,,6-3[8:1],,,3,,,1,,
8v1[8:1],,,,6,,7,7,2h[16:3],,,3h[16:3],,,1,,
2-4[12:1],,,,5,,6,6,4-6[12:1],,,,7,,,,
6-8[12:1],,,,1,,2,2,7h[16:3],,,6h[16:3],,,5,,
3v6[8:1],,,6,,,8,,7-2[8:1],,,2,,,4,,
5v4[8:1],,,,7,,8,8,3h[16:3],,,5h[16:3],,,2,,
3-5[12:1],,,,6,,7,7,5-3[12:1],,,,6,,,,
6h[16:1],,5h[16:1],,4h[16:1],,3h[16:1],,2h[16:1],,3h[16:1],,4h[16:1],,5h[16:1],,
3/7v2[8:1],,,2,,,4,,3<6[8:1],,,6,,,8,,
1v8[8:1],,,,3,,4,4,7h[16:3],,,1h[16:3],,,8,,
3p6[8:1],,,6,,,8,,7>2[8:1],,,2,,,4,,
5v4[8:1],,,,7,,6,6,3,,4,,5,,6,,
5-1[8:1],,,6,,,4,,4-8[8:1],,,3,,,5,,
7v5[8:1],,,5,,,4,,2v4[8:1],,,4,,,5,,
6h[4:1],,7,,4h[4:1],,8,,5,,3,4,2,,1h[4:1],,
5,,6,,
{16}
7h[4:1],,5pp4[8:3],,4,,3,,2,,1,,
2-4[16:3],,,,,,1,,1-5[4:1],,,,,,3,,
4-2[16:3],,,,,,6,,5-1[16:3],,,,4,,3,,
2h[16:3],,,3h[16:3],,,4,,6h[16:3],,,5h[16:3],,,4,,
3<6[4:1],,,,,,7,,8,,1,,2,,3,,
4-6[8:1],,,5h[16:3],,,,,4-6[8:1],,,5h[16:3],,,,,
4-6[8:1],,,4h[16:3],,,,,3-6[8:1],,,2h[16:3],,,,,
1/5h[8:3],,,,,,3,4,2h[16:3],,,3h[16:3],,,1,,
2,4,2,4,1,4,1,4,
{24}
2,3,4,
{16}
7,7,3,5,3,5,
,2/4,,,5/7,,,1/3,,,8/6,,1b,,5,,
{16}
2/4-8[8:1],,,,4/5,,6,,7-5[12:1],,8,,1-3[12:1],,8,,
4-8[8:1],,,5,4,,6,6,1,,1,,8/2,,7,,
6/4-8[8:1],,,,3/4,,2,2,7-5[12:1],,6,,1-3[12:1],,2,,
4-8[8:1],,,5,4,,6,6,1,,1,,2/4,,5,4,
6-4[12:1],,,,2-6[8:1]/6,,,,6,,7,,8/5,,4,,
3<6[8:1],,,6,3,,8,,7,,7,,3/5,,6,5,
7,,4,,3/5,,6,5,7,,8,,1/4,,2,,
3,4,3,4,2,1,2,1,
{24}
2,3,4,
{16}
7,7,4,6,4,6,
7/5-1[8:1],,,,4/5,,3,3,8-6[12:1],,7,,2-4[12:1],,3,,
5-1[8:1],,,6,5,,7,7,2,,2,,3/5,,6,5,
7h[4:1],,5,,4,,3,4,2h[8:1],,3h[8:1],,4h[8:1],,5h[8:1],,
6>8[4:1],,,7,7qq3[4:1],,,,,,,,8,,,,
1/5,,3,,4-8[8:1],,5,,7,,5,,4-8[8:1],,3,,
1,,3,,4qq5[4:1],,5,,7h[8:1],,,,8-4[8:1],,7,,
6>3[8:1]/8,,,,2-6[8:1],,,,1/2,,8,,7,,5,,
3,4,3,4,2,5,1,5,
{24}
2,3,4,
{16}
6,6,3,5,3,5,
2,3,4,5,7,6,5,4,3h[16:1],,4h[16:1],,5h[16:1],,6h[16:1],,
4/7p4[4:1],,,,,,,,,,,,,,4-8[8:1],,
3-1[12:1]/5,,,,,,,,5-7[12:1]/7,,,4-8[8:1],,,2,,
2-6[8:1],,,,,,8,,5-1[8:1]/7,,,,8b,,7,,
2/6,,3,,4/5,,3,4,2h[16:3],,,4h[16:3],3,,2,,
1>3[8:1],,,5-7[8:1],1,,6,,8-3[8:1],,,4-6[8:1],8,,5,,
1-5[8:1],,,,6,,7,7,4h[16:3],,,5h[16:3],3,,2,,
6-4[8:1],,7,,3,,2,2,4-7[8:1],,5,,2,,1,,
2,4,3,5,4,6,5,7,
{24}
4,3,2,
{16}6,6,3,5,4,6,
5-2[8:1],,,6-8[8:1],5,,7,,1>4[8:1],,,7-1[8:1],1,,6,,
5-1[8:1],,,,6,,7,7,2h[16:3],,,5h[16:3],2,,3,,
4>1[8:1],,,6-4[8:1],4,,7,,2v7[8:1],,,4-6[8:1],2,,5,,
1-5[8:1],,,,8,,7,7,3,,4,,5,,6,,
7<5[12:1]/4,,,5-1[8:1],7,,1,,2>4[12:1],,,4-8[8:1],2,,8,,
7V15[4:1],,,1,7,,5,,2V84[4:1],,,8,2,,4,,
6V47[4:1],,7,4,6,,3,,2V83[4:1],,3,8,2,,7,,
6V48[8:1],,7,1,6,,2,,3,,4,,5,,6,,
2h[8:1]/7h[8:1],,,1h[8:1]/4h[8:1],,,8/5,,3h[8:1]/6h[8:1],,,8h[8:1]/5h[8:1],,,1/4,,
2/6-1[8:1],,,,1b,,2,2,1h[8:1]/3h[8:1],,,7h[8:1]/5h[8:1],,,1/8,,
{12}
2,3,2,3,4,3,4,5,4,5,6,5,
6>8[2:3]*p8[2:3],,,,,,,,,,,,,,,,,,,,,,,,
