&title=TECHNOPOLIS 2085
&artist=PRASTIK DANCEFLOOR
&first=0.07
&des=KARINA IN HOUSE
&lv_5=14
&inote_5=(134)
{1},
{16}1,,1,,1,,1,1,,,1/8,,,1/8,,,
{16},1,,,1/8,,1,,7h,,1,,C,,,,
{16}5h[8:10],,,,1,1,,1,,,1,,,1,,,
{16},1,,,1,,1,,7h,,1,,C,,,,
{16}1,,1,,1,,1,8h,1,,1,8h[8:1],,1,1,,
{16}1,7h[16:1],,,1/7h[16:1],,1,,1,,7h[16:1],,1/C,,,,
{16}1/8,,C,,1,,1/8,,C,,8,,1/8,,C,,
{16}1,,1/8,,C,,8,,1-4[8:1]/8-5[8:1],,1/8,,
{16}1bxv4<8[16:12]/8bxv5>1[16:12],,,,
{16},,,,,,,,,,,,,,,,
{16}3,,3,4,3,,6,5,6,,3,4,3,5,4,6,
{16}2,,2,5,4h[16:2],,7,4,5h[16:2],,4,5,3,6,2,5,
{16}1,,1,7,1,,7,1,7,,1,7,8,6,5,7,
{16}5hx[4:1]/8hx[4:1],,,,,,
{32}8/5,7/4,3/6,2/5,1x>4[8:1]/4x<7[8:1],,,,,,,,,,,,,,,,
{16}5hx[4:1]/8hx[4:1],,,,,,
{32}8/5,7/4,3/6,2/5,1x>4[8:1]/4x<7[8:1],,,,,,,,,,,,,,,,
{16}5hx[4:1]/8hx[4:1],,,,,,
{32}8/5,7/4,3/6,2/5,1x>4[8:1]/4x<7[8:1],,,,,,,,,,,,,,,,
{32}8x/5x,D1,A1,D2,A2,D3,A3,D4,A4/1x,D5,A5,D6,A6,D7,A7,D8,
{32}A8/4x,5,6,7,8,1,2,3,4/5x,6,7,8,1,2,3,4,
{16}5/1-4[8:1],,,,1-5[8:1]/7h[8:1],,,,1-3[8:1],7h[16:1],,,1,7h[16:3],,,
{16}1h[8:1],,,6h[8:1],,,5h[8:1],,8h[16:3],,,4,,7,3,,
{16}6b/3b,,6b/3b,,2,7,2,7,
{32}2,E3,B3,B4,,,,,2/7,E7,B6,B5,,,,,
{16}1-6[8:1]*-4[8:1],,,,1,,,,8,,
{48}2,,,8x,B8,,,,2,,,7x,B7,,,,,,
{16}2-5[8:1],,,,7-5[8:1]/2,,,,7-3[8:1],2h[16:1],,,7,2h[16:3],,,
{16}8h[8:1],,,5h[8:1],,,4h[8:1],,1h[16:3],,,3,,2,8,,
{48}8/A2,D3,A3,D4,,,E8,B7,B6,B5,,,
{16}1,8,1,7,Chf[2:1],,,,,,,,
{32}7x,6,5,4,3x,2,1,8,7x,6,5,4,3x,
{32}2,1,8,7/2x,3,4,5,6x,7,8,1,2x,3,4,5,6x,7,8,1,
{16}2-7[8:1]/6,,,,2/6-3-5[4:1],,,,6/1,,2,,1,1,8,5,
{16}7hx[16:12],,,,5x>2>5b[4:1],,,,5x<8<5[4:1],,,,,,,,
{16}8b,,8b,,1,6,1,6,
{32}1,E2,B2,B3,,,,,6/1>4[8:1],E6,B5,B4,,,,,
{16}1x-6[8:1]/5x-2[8:1],,,,1x/5x<8[8:1],,,,
{48}5x-2b[8:1]/1x-6[8:1],
{48}D2,A2,D3,A3,D4,A4,,,,,,5x/1x,,,,,,,,,,,,
{16}1v4[8:1]/5h[8:1],,,,1<7[8:1]/7h[8:1],,,,
{16}1>3[8:1],5h[16:1],,,1,5h[16:3],,,
{48}1,8,7,,,,
{16}5,3,5,,5,,
{32}3/7h[8:1],E4,B4,B5,,,,,
{32}2>8[2:1]/6h[8:1],E2,B1,B8,,,,,
{16}2/7h[4:1],,,,,,,,B5f,B5f,B5f,B5f,B5f,,,,
{16}2,,4,3,,6,4,7,
{32}1x,8x,1x,,1p5[8:1],,1,,1,,,,1b/2b,,,,
{16}3h[8:1],,,,3h[8:1],,,,3h[8:1]/4h[16:1],,,,3h[8:1],,4,,
{16}3h[8:1],,4,,4/3h[8:1],,4,,3h[8:1],4,,,3h[8:1]/4,,,,
{16}3h[8:1],4,5,,3h[8:1]/6,,7,,3h[8:1]/8,,,,3h[8:1]/1,,,,
{32}1h[8:1]/3,E4,B4,B5,,,,,1h[8:1]/3,E4,B4,B5,,,,,
{32}1h[8:1]/3,E4,B4,B5,,,,,1h[8:1]/3,E4,B4,B5,,,,,
{16}3/1>4[8:1],,,,1/6>4[8:1],,,,6-8[8:1],1h[16:1],,,6,2h[16:3],,,
{48}6,5,4,,,,
{16}2,1,2,,8bx,,8,,5h[8:1],,6h[8:1],,8,,
{16}7-3[8:1]/4-1-7[4:1],,,,7<4[4:1],,,,4>1[4:1],,,,1,,,,
{16}7x,1x,7x,5,7,2,7,5,7,3,7,5,7h[4:1]/5hx[4:1],,,,
{16},,,,,,,,2,2/B4,,2h[16:1],,2,
{48}7/E3,B3,B4,,,,
{16}7h[8:1],,,,7h[8:1],,4,6,3,,5,4,7-4[8:1],,2,2,
{16}7x,,3,3,7-5-1[4:1],,4,4,7x,,2,2,2,,2,1,
{16}2,,,,2-5[8:1]/3,,,,2xb/4xb-7[8:1],,,,2xb/4xb,,,,
{48}2,B2,Ch[8:1],,,,6,5,4,,,,2,B2,Ch[8:1],,,,6,5,4,,,,
{48}6/2,7/3,8h[48:10]/4h[48:10],,,,,,,,,,
{16},,8,1,7,7,B1f,B1f,B1f/7x<4[8:1],,,,7/2v5[8:1],,,,2,,,,
{48}8bx>2v4[6:1]b,7x,6x,5x,,,,,,,,,8bx,,,,,,,,,,,,
{48}8bx,7,6,5,,,,,,,,,1x-7-2-6-3-5[2:1]/4x,,,,,,,,,,,,
{16},,,,,,,,8,8,8,8,1/8,1/8,1/8,1/8,
{16}2x/7x,,1,5,2h[8:1],,
{48}7,6,5,,,,3,,,,,,6,,,4,,,7h[8:1],,,,,,B3,B4,E5,,,,
{16}6,,4,5,2h[8:1],,
{48}6,5,4,,,,
{16}2,,7,2,2/6-2-4v1[2:1],,,,
{16}6x,,,,1xv6<2[2:1],,,,3hx[4:1],,,,,,,,
{16}4h[2:1],,,,,,,,Ch[4:1],,,,,,,,
{16}3,,3,4,3,,5h[8:1],,3h[8:1],,4h[8:1],,2h[8:1],,6h[8:1],,
{48}1hb[8:1],,,,,,7,E7,B6,B5,,,
{48}1b>4[8:1],,,,,,7-4[8:1],E7,B6,B5,,,
{16}1-5[8:1],,7,,1,,7,7,
{16}1,8,1,8,2,7,2,7,3,6,3,6,4,5,3,5,
{16}4,6,5,7,4,7,2,8,4h[4:1],,,,5bx,5x,5x,5x,
{16}1,1,1,1,2-6b[8:1],,8,,2/8bw4b[8:1],,,,
{48}8b,Cf,,,,,,,,,,,
{16}1-4[8:1]/5h[8:1],,,,5h[8:1]/1-6[8:1],,,,
{16}1-4[8:1],5h[16:1],,5,1,5h[16:3],,,
{16}1h[8:1],,,5,,5,2h[8:1],,6h[8:1],,3,7,3,5,3-5[8:1],,
{16}5bv2[8:1],,3b,,7>2[8:1],,6,,
{32}3x-1[8:1]/7x,E4,B4,B5,,,,,3x/A8,E8,E7,A6,,,,,
{16}1h[4:1],,,,6h[8:1],,,,
{48}6/D2,A2,D3,A3,,,
{16}B7,1,,1,
{48}1/A7,D7,A6,D6,,,
{16}4-2[8:1],,,,4-6[8:1]/8h[8:1],,,,
{16}4-2[8:1],8h[16:1],,8,4,8h[16:3],,,
{16}4,,,8,,8,3,,7h[8:1],,2,7,3,5,4-2-8[5:1],,
{16}6bx,,4bx,,7,6,5,4h[16:5],
{32}E1,E2,E3,E4,E5,E6,E7,E8,E1f,,,,,,,,
{16}5,,3b,3b,3b,,2,,2>5[8:1]/6,,1/8-4[8:1],,2,,8,,
{16}1h[4:1],,,,Ch[4:1],,,,1,1,1,1,
{32}2bx,3bx,2bx,3bx,2bx,3bx,2bx,,
{16}2h[8:1]/C,,,8h[8:1]/4h[8:1],,,7/C,,
{16}1h[8:1]/5,,,6,1-4[8:1],,7/4-1[8:1],,
{16}1>4[8:1],,,,7>2<7b[4:1],,,,7<4<7[4:1],,,,,,,,
{16}3h[4:1],,,,8h[8:1],,,,
{48}3/D8,A7,D7,A6,,,B2,,,8,,,,,,7,,,7/E3,B3,B4,E5,,,
{16}6-4[8:1],,,,1/6v8[8:1],,,,6-4[8:1],2h[16:1],,,6,3h[16:3],,,
{16}6h[8:1],,,2h[8:1],,,5h[8:1],,3,,,2h[8:1],,7,4h[8:1],,
{48}E7,B6,B5,E5,,,E4,B3,B2,E2,,,
{16}8,1,8,2,
{32}8,7,6,5,4,3,2,1,8x/Ch[4:1],,,,,,,,
{16}8-5[8:1],,8,,8/3,,3,3h[8:1],,1,3,7h[16:3],
{48}1b,B1,C,B5,A5,,,,,,,,
{16}3/6,,3/6,,3/6,,1,1,,,4/7,,,2/5,,,
{16},1/B7,,,2/B4,,8,,7h,,1,,Cf/B8/B1/B2/B3/B4/B5/B6/B7,,,,
