&title=コネクト
&artist=ClariS 「魔法少女まどか☆マギカ」
&first=0
&des=CH3COOL respects for maimai-Green
&wholebpm=175
&shortid=21
&genre=POPSアニメ
&cabinet=SD
&version=maimai
&ChartConverter=Neskol
&ChartConvertTool=MaichartConverter
&ChartConvertToolVersion=1.0.5.0
&smsg=See https://github.com/Neskol/MaichartConverter for updates
&lv_5=12++
&inote_5=(175){1},
{4},,,,
{8}6,5,4,3h[8:5],,,,,
{8}4,3,2,1h[8:5],,,,,
{8}5,4,3,2h[8:4],,,,,
{8}1,2,3h[8:3],2,,2,1,8h[4:2],
{8}7,,,1h[8:4],3,2,,6,
{8}7h[8:5],8,,2,,4,,6-3[1:1]/7-2[1:1],
{1},
{4},,,{16}4/8,3/7,2/6,1/5,
{8}8-3[8:1]/4-7[8:1],,4-1[8:1]/8-5[8:1],,,,,2-6[8:1],
{4},,1-5[8:1],,
{8}2h[8:2],,3-7[8:1],,,1<6[4:2],,2h[8:7],
{4},,,{16}1<6[8:1],2,3,4,
{8}5>2[8:1],,,,6-2[8:1],,,8h[8:3],
{4},2>5[8:1],8h[8:6],,
{4}4-7[8:1],{8},8-3[8:1],,,1,,
{2}3h[4:1]/7h[4:1],2h[4:1]/6h[4:1],
{8}1h[4:2],,3,,2,1,,8,
{8}4-8[8:1],,5-2[4:1],5,,,,8h[8:1],
{8}7-4[8:1],,8,,1h[8:4],2,,,
{8}3h[4:1],,,2-6[8:1],,4,,3,
{8}3-7[8:1],,2,,1-5[8:1],1,,8h[4:1],
{8},6,7h[8:3],8,,1,,2,
{2}3-8[8:1],8-5[8:1],
{2}5-2[8:1],2-7[8:1],
{8}1b,,8h[8:2],,7,8,,1h[8:3],
{8}2,,4,3-8[8:1],,1-5[8:1],,4h[8:3],
{8},,6,,7,7<4[4:2],,8,
{8}8h[8:3],,,,,2,1h[8:1],8,
{8}7-3[8:1],,4,,3,4,,6,
{8},1,8,7,6,,1/8-3[8:1],,
{8}4-7[8:1],,,2-5[4:3],,,8h[4:3],,
{4},,,8-5[8:1],
{4}4h[4:1],3-7[8:1],2h[4:1],{8}1-6[8:3],1,
{4},,3,3/2-5[8:1],
{8}3-7[8:1],,,8>3[8:5],,,8h[8:4],,
{4},,,{8}2-5[8:1],1,
{8}8,,{8}7-3[8:1],5,,{8},3-7[8:1],
{4},1-6[8:1],{8},8,{8},7-4[8:1],6,
{8},,{4}4-7[8:1]/8-3[8:1],,{8}3-7[8:1],7,
{4},6/7-2[8:1],,{8}2,1,
{8}8-3[8:1],,4-7[8:1],,6>3[8:1],,2<7[8:1],2,
{4},,4>1[384:49],2-5[8:1],
{8}8-3[8:1],,,4,,,5-2[8:2]/6-1[8:2],5/6,
{4},,1-6[8:1],1,
{8}8-3[8:1],,8,7-4[8:1],,7,,2-5[8:2],
{8},,2,6,,4,,7-2[8:7]/3-6[8:7],
{1},
{8},,,,7-3[8:1],3<6[8:1],,,
{8}2<7[8:1],,,6,7,8,,1,
{8}2-7[8:1],1,,6-3[8:1],,7,,4-1[384:47],
{8},,,5-8[8:1],5,6,,6,
{8}1-5[8:1],5>2[8:1],,,,5-2[8:1],2<7[8:1],,
{8},,,7<4[8:1],6,,,3,
{8}4,5-8[8:1],,8-5[8:1],,1-4[8:1],,6h[8:5],
{8},,,,,4/5,3/6,7-2[4:1]/2-7[4:1],
{8},,,,8-3[8:1],3<6[8:1],,,
{8}7<4[8:1],,,8,1,2<7[8:1],,3,
{8}4,5h[4:3],,1b,,6b,,3b,
{8},,,6,5,4<7[8:1],,3,
{8}2,1-6[8:1],8,7-4[8:1],,5-2[8:1],,,
{4},,6<1[4:1],1-5[4:1],
{8}5>2[8:3],,2,2-6[4:1],,6<1[4:1],,1>4[4:1],
{4},,,7-3[8:1],
{4},1-5[8:1],,5-2[8:8]/6-1[8:8],
{1},
{8},,,,8-4[8:1],,,,
{8}7-3[8:1],,4,,2,2<7[8:5],,3h[16:14],
{16},,,,,,,,,,,,4<7[8:1],3,2,1,
{8}8>3[8:1],,,,7-3[8:1],,,5h[8:3],
{8},,3<6[8:1],,8h[2:1],,,,
{8}1h[8:3],,3,2h[8:3],,4,3h[4:1],,
{4}4,,{8}1,8,7,8,
{4}1-6[8:1],8-3[8:1],4-7[8:1],5-2[8:1],
{4}3-8[8:1],6-1[8:1],2-5[8:1],8-3[8:1],
{1}4-7[4:3],
{1},
{1},
{1},
E
