&title=MegiddØ
&artist=BlackY v.s. 大國奏音
&first=0.11
&lv_5=14+
&des_5=ARcana v.s. X
&inote_5=
(180){4},{8},{32}3x,4x,6x,5x,3x,4x,6x,5x,2x,3x,7x,6x,2x,3x,7x,6x,3x,4x,6x,5x,
{12}3bx,6,5,4,6,5,4,3,6,5,4,3,
6,5,4,3,6,5,4,3,6,5,4,3,
6,5,4,3/6,,5,,6/3,,3,4,5,
6,3,4,5,3,4,5,6,3,4,5,6,
3,4,5,6,3,4,5,6,3,4,5,6,
3,4,5,6,3,4,5,6,5,4,{6}3h[12:1],
{16}2b,4,3,4,3,4,3,4,3,4,3,4,2b,4,3,4,
3,4,3,4,3,4,3,4,2b,4,3,4,3,4,3,4,
3,4,3,4,2b,5,4,5,3b,6,5,6,4b,6,5,6,
{12}7/5,6,5,4/6,5,4,3/5,4,3,2/4,3,2,
1/3,2,1,8/2,1,8,{2}7xh[4:1]/1xh[4:1],
{16}3,6,{32}1,8,7,6,5,4,3,2,1,8,7,6,5,4,3,2,1,8,7,6,5,4,3,2,1,8,7,6,
{1}5b/Cf,
,{16}2b,
5,4,5,3,4,3,6,5,6,4,5,4,6,5,6,
3,4,2b,6,5,7b,3,4,2b,4,3,4,{4}2b,
{16}3b,3b,3b,3b,3b-7[16:1],3b,3b,3b,{32}3b,Cf,{16},,,6b,6b,6b,6b,
6b-2[16:1],6b,6b,6b,{32}6b,Cf,{16},{8}8x-4b[8:1],{32},,,,,,,A4f/D4/E4/B4/E5/D5,{4},{16}2b,
5,4,5,3,4,3,6,5,6,4,5,4,6,5,6,
3,4,2b,6,5,7b,3,4,2b,6,5,7b,3,4,{8}2b,
1x>4[8:1],8,{16}7,D3,{8}6<1[8:1],5,{24}4,A7,,{8}3<6[8:1],2,
{16}1,D5,{8}8>3[8:1],7,{16}6,D2,{8}5<8[8:1],4,{4}3w7[16:1],
{16}3b,A8f/A7f/A6f/D7/D8/E7/E8/B7,{4},{16}1,8,{24}1b,2,3,4,5,6,7/3b,8,1,2,3,4,
5/1b,6,7,8,1,2,3/7b,4,5,6,7,8,1/5b,2,3,4,5,6,7/3b,8,1,2,3,4,
5/1b,6,7,8,1,2,3/7b,4,5,6,7,8,1/5b,2,3,4,5,6,7/3b,8,1,2,3,4,
5/1b,6,7,8,1,2,3/7b,4,5,6,7,8,{4}1/5b,{8}8b,8b,
7b,7b,6b,6b,{24}5,5,5,5,5,5,5,5,5,5-1[0.1667##0.1667],,,,,,{8}7-3[0.1667##0.1667],
,2-6[0.1667##0.1667],,8b,,8w4[0.1667##0.0833],
{1}8<1[0.1667##3.6667],
,{4}B6,
B5,B4,B3,
{1}Ch[2:1],
{4}1>8[0.1667##4.5],E5,B6,{8}E5,Ch[8:3],
{4},E3,E1,E7,
E6,E5,E4,E5,
{1}Cfh[2:1],
{8}1-5[8:1],{4},{8}7,{2}8-4[8:1],
{4}3,3,2-6[8:1],7,
{8}8-4[8:1],1-5>1[2:1],8,1,,1<5[4:1],,5w1[4:1],
{2},B2/B3/E3/B7/B6/E7/Cf,
{8}3/E5,3,3/E6,3,3/E7,3,3/E8,3,
6/E5,6,6/E4,6,6/E3,6,6/E2,6,
{4}4h[8:1]/5h[8:1],{24}4,5,4,5,4,5,4,5,4,5,4,5,4,5,4,5,4,5,
{12}4,6,2,5,3,7,4,6,2,4,{6},{16}2b-6[0.1667##0.0833],
{8},{16}7b-3[0.1667##0.0833],{8},1b-5[0.1667##0.0833],{4},{16}7-3b[0.1667##0.0833],{8},{16}2-6b[0.1667##0.0833],
{8},5-1b[0.1667##0.0833],{16},3-7b[0.1667##0.0833],{8},{16}6-2b[0.1667##0.0833],{8},{16}4-8b[0.1667##0.25],{8},8qq4[8:3]*pp4[8:3],
{2},A4f,
{32}1b,2,3,4,8b,7,6,5,1b,2,3,4,8b,7,6,5,{2}Cf/B2/B3/E3/B7/B6/E7,
4qq8[0.1667##0.5],{32}7b,6,{16}5,{24},{96}7b,{48},{96}6,{48},5,{12},{96}7b,{48},{96}6,{48},5,{12},B5,
E5,B4,{96}2bx,{48},{96}3x,{48},{16}4x,{24},{96}2b,{48},{96}3,{48},4,{12},{96}2b,{48},{96}3,{48},4,{12},{32}2b,3,{16}4,{8},{2}5qq1[0.1667##0.5],
Cf,
{3}2h[3:1],5h[3:1],3h[12:7],
{4},{32}7b,6,{16}5,,{32}7b,6,{8}5,{32}7b,6,{16}5,,{32}7b,6,{8}5,
{32}2b,3,{16}4,,{32}2b,3,{8}4,{32}2b,3,{16}4,,{32}2b,3,{8}4,{4}5qq7[0.1667##0.3333],
,{32}1b,2,{16}3,,{32}1b,2,{8}3,{32}1b,2,{16}3,,{32}1b,2,{8}3,
{32}8b,7,{16}6,,{32}8b,7,{8}6,{32}8b,7,{16}6,,{32}8b,7,{8}6,{4}Cf/B2/B3/B6/B7/E3/E7,
{2}Ch[16:1],{24}1b,8b,1b,8b,1b,8b,1b,8b,1b,8b,1b,8b,
{16}2b,7b,2b,7b,3b,6b,3b,6b,{12}4b,5b,4b,5b,{24},{8}4b,
{2}5q8[0.1667##0.8333],C,
4p1[0.1667##0.8333],C,
{8}3,4,5,6,3,4,5,6,
2b,3,4,5,1b,2,3,4,
{16}2,1,2,1,3,8,3,8,4,7,4,7,5,6,5,6,
{1}5h[2:3],
,{2}5b,
5w1b[0.1667##0.25],
{8}2-6[8:1],1-5[8:1],2,1,8-4[8:1],7-3[8:1],8,7-1[8:1],
,7-5[8:1],,7-3[8:1],,,,5h[8:3],
,,,{16}3,4,{4}5h[8:1],5w1[8:1],
{2}5b,{16}1,2,3,4,8,7,6,5,
{8}2,7-3[8:1],3,7b/2-6[8:1],,2b/8-4[8:1],,8b,
{16}1,2,3,4,5,6,7,8,{8}1-5[8:1],8,{4}1,
{8}3/E5,3,3/B6,3,6/E5,6,6/B3,6,
{12}3b/7,2,1,8/5,6,7,8/3,2,1,8/5,6,7,
{8}8-3[0.1667##0.1667],3-5-1b[0.1667##0.3333],1,2,,{16}8/4,7/3,6/2,1/5,{8},1-6[0.1667##0.1667],
6-4-8b[0.1667##0.3333],8,7,,{16}1/5,2/6,3/7,4/8,{8},{4}4>1[8:1],
{32}8,7,6,5,8,7,6,5,{4}4>1[8:1],{32}8,7,6,5,8,7,6,5,
{2}4h[4:1],2b/6b,
{8}6/E5,6,6/B3,6,3/E5,3,3/B6,3,
{16}1b,8,7,6,4b,3,2,1,{24}8b,7,6,5/4,3,2,{32}8b,7,6,5,4,3,2,1,
{8}8b-4b[0.1667##0.0833],2b-6b[0.1667##0.0833],7b-3b[0.1667##0.0833],1b-5b[0.1667##0.0833],8,7,3/6,2/8,
6/4,1/7,3/5,4/8,2/5,4/7,1/6,3/7,
{16}2,1,2,1,2,1,2,1,5,6,5,6,5,6,5,6,
8,7,8,7,8,7,8,7,3,4,3,4,3,4,3,4,
3b,4,2,5,3,4,2,5,4b,5,3,6,4,5,3,6,
5b,6,4,7,5b,6,4,7,5b,6,4,7,5b,6,4,7,
3,4,1,8,5,6,3,2,5,4,7,6,8,1,4,3,
8,1,5,7,8,2,6,5,2,1,4,3,6,5,7,8,
{8}3,3,3/4,3,3/6,3,3/8,3,
6,6,6/4,6,6/3,6,6/2,6,
{16}1,8,1,8,1,8,1,8,1,8,1,8,1,8,1,8,
{32}1,2,{16}3/8,1x,8,1,{32}8,7,{16}1/6,8x,{48}1x,2,3,4,5,6,7,8,1,2,3,4,5,6,7,8,1,2,3,4,5,6,7,8,
{1}1b-5b[0##5],
,,,{2}6h[2:1],
5h[2:1],
4h[2:1],3h[2:1],
4h[2:1],5h[2:1],
{8}6,6,3,3,7,7,2,2,
{32}8,7,6,5,4,3,2,1,8,7,6,5,4,3,2,1,8,7,6,5,4,3,2,1,8,7,6x,5,4,3,2,1,
{16}8-4[0.1667##0.0833],{8},{16}2-6[0.1667##0.0833],{8},7b,{4},{16}2-6[0.1667##0.0833],{8},{16}7-3[0.1667##0.0833],
{8},4-8[0.1667##0.0833],{16},6-2[0.1667##0.0833],{8},{16}3-7[0.1667##0.0833],{8},{16}5b,{4},{6}1/6,
2/5,{24}4h[6:1]/3h[6:1],{4},{24}1,{48},{16}7,5,1,2,6,
{8}8h[8:3],{4},{8}6h[4:1],,3h[8:3],{4},{16}8-4[0.1667##0.0833],
{8},{16}2-6[0.1667##0.0833],{8},7-3[0.1667##0.0833],{4},{32}2-6[0.1667##0.0833],{8},{32}Cf,{16}1-5[0.1667##0.0833],
{32},,,Cf,{8}8-4[0.1667##0.0833],{32},Cf,{48},{96}7-3[0.1389##0.0833],{8},{96}Cf,{48},{32}6-2[0.1667##0.0833],{8},{32}Cf,{16}5,{4},{16}1-5[0.1667##0.0833],
{8},{16}7-3[0.1667##0.0833],{8},2-6[0.1667##0.0833],{4},{16}7-3[0.1667##0.0833],{8},{16}2-6[0.1667##0.0833],
{8},8-4[0.1667##0.0833],{16},1-5[0.1667##0.0833],{8},7-3[0.1667##0.0833],1,1,1/7,
1/7,1/7,{32}2b,3,{16}4,{32},7b,6,5,1b,2,{16}3,{32},8b,7,6,{16}3b,2,1,8,
2b,1,8,7,1b,8,7,6,8b,7,6,5,7b,6,5,4,
{1}3b/6b,
5-1b[0##5.3333]*<5[0##5.3333],
E
