&title=Sheriruth
&artist=Team Grimoire
&first=0
&des=ねこ対立
&wholebpm=185
&lv_5=14+
&inote_5=(185)
{1},
{8},,,,,,
{4},,,,,,,,,,,,,,
{8}
5/4,4,4,3,4,3,5,5,5,6,5,6,3,3,6,6,
53,3,3,2,5,4,6,6,6,7,4,5,2,2,7,7,
8/5,5,5,5/6,6,6,1/4,4,4,3/4,3,3,
7/5,6,2/4,3,
{16}5,4,5,4,6,5,6,5,7,5,7,5,8,5,8,5,1,5,1,5,
1,8,7,6,1,2,3,4,7p3[32:4],6,3,4,
{8}7b,,2,2,4,3,6,5,7,,8,8-5[8:1],5,8b,1>6[16:4],4,1b,,
7,7,5,6,3,4,2,,56,7,5,6h[8:1],3<6[8:1],8h[8:1],
3b,,7,7,5,6,3,4,25,,1,1-4[8:1],4,1b,8<2[32:9],5,8b,,
1,1,4,3,6,5,74,6,2,4,4,{24}2,3,4,5bqq2[16:7],,,2,3,4,5b,,,
{8},8,8,7h[8:1],1,3h[8:1],1,7h[8:2],,3,3-5[8:1],5,3b-1[8:1],7V15[16:4],3,7b,,
4,4,3h[8:1],5,7h[8:1],5,3,3,5,6,4,2,4>1[8:1],6,4b,,
7h[8:1],1h[8:1],4h[8:1],1h[8:1],8h[8:1],2h[8:1],4h[8:1],2h[8:1],1h[8:1],3h[8:1],4h[8:1],3b,8h[8:1],4h[8:1],
{16}
7b,4,5,4,5,4,5,4,
6,3,4,3,4,3,4,3,
7,4,5,4,8,5,6,5,
{32}7h[8:2],,,,1,2,3,4,5,,,,8,7,6,5,
{8}4<8[32:6],,3,2-6[32:4],,2,8,,34,2,5h[8:1],4h[8:1],6,7,4h[8:1],5h[8:1],
3<6[8:1],,3,7<2[16:4],,7,1>8[16:6],,1/5,,,,5q4[16:4],,4>5[16:7],,2b,,4,4,,
4p6[16:4],5,6<4[16:6],7b,,5,5,,
5q3[16:4],4,3>5[16:6],2b,,4,,3,2h[8:1],5,6h[8:1],1s5[16:5],,1,6,7,8,4,3,2>6[16:3],,
8,7p1[32:6],,2,3,,45,6h[8:1],4h[8:1],5h[8:1],3,2h[8:1],4h[8:1],3h[8:1],
8,5h[8:1],7h[8:1],1,4qq1[8:4],2,6,,8qq5[8:4],,8,,3,,1h[8:2],,
4,4,42,2,27,7,75,5,
{16}85,,7,5,,6,5,,54,,3,4,,2,4,,
{8}1/6qq3[16:7],1,1,1,1,1,1,1/4,
{16}4,5,6,7,2,3,4,5,
{24}8,7,6,5,4,3,7,6,5,4,3,2,
{16}7b,,6,1,5,2,4,3,
5>1[32:6],4,6,5,7,7,,,
8,7,6,8,1,2,7,6,51,2,3,6,5,4,2,3,5h[8:1]/4,,,5/7h[8:1],,,2-5[8:1]/4,,6-1[32:4],,
{8}2b,6b,,{16}2,4,2,4,3,8,3,8,1,5,1,5,3-7[32:4],7,3,7,
{8}
3,5-1[32:4],1,5,4-8[8:1],8,4/7-3[32:4],,
7,1-5[32:4],5,1,8-4[8:1],4,8/3,,
{16}25,,3,4,,1,8,,4,5,,8,7,,56,,
74,,3,4,,6,5,,4-1[8:1]/5-8[8:1],,36,,45,,,,
2b/7b,,3,8,4,7,5,6,4<8[32:6],5,3,4,2,2,,,
1,2,3,1,8,7,2,3,48,7,6,3,4,5,7,6,5b-1[8:1]/2b-8[8:1],,,,2b/5b,,,,4b/7b,,8b-4[8:1]/3b-5[8:1],,,,8b>7[16:6]/3b,,,,,,,,,,
1,2,3,4,5,6,7,8,
{8}1b-5[8:1]/5,6-8[8:1],1,6,4-2[8:1],1-5[8:1],4,1,3b-7[8:1],6-4[8:1],3,6,8-2[8:1],3-7[8:1],8,3,
{16}1b,,64,,5,,3,4,1b,,35,,4,,6,5,8b,,64,,3,4,2,5,3,4,1,6,3,4,{24}8,7,8,
{8}
7b-3[16:2],,78,1<3[16:4],,2,2-6[8:1],,2pp5[8:4],,,,
5,6,7,8,1/5>1[32:6],,65,7-3[8:1],8,7/2-6[8:1],,2/8>7[16:5],,,,,
{16}1,2,3,4,1/5-1[8:1],6,7,8,1b/5b,,,,
{8}38,74,8-4[8:1],3,8,1,
{24}6b/1b,5,4,3,2,1,8,7,6,2b/5b,3,4,5,6,7,8,1,2,3b-8[8:1]/7b-4[8:1],,,,,,
{8}3b/7b,,6V41[16:4]/2,,1p6[16:8],1,,,
2,2,2,2,26,{32}1,2,3,4,5,,,,8,7,6,5,
{8}4bqq5[16:4],,54,6>8[16:4],,8,7-3[8:1],,7qq4[8:4],,,,
4,3,2,1,8b>3[8:1]/4b<7[32:4],,8bz4[8:2]/4b,,8b/4b,2b-6[8:1],,2b/8bw4[8:1],,,,,
{16}51,62,73,84,1-5[8:1],2,3,4,
{8}5b/1b,,64,7,8/2-4[8:1],3,8-5[32:4]/2,,1b,,34,2,1/7-5[32:3],6,1-4[8:1]/7,,
{16}8b,,,6,5,,74,,8b/2h[8:1],,4h[8:1],,5h[8:1],,7h[8:1],,
1b,4,3,4,2b,5,4,5,3b,6,5,6,4b,7,5,7,
5,4,3,2,15,,26,,6/2,3,4,5,4,5,6,7,
4,5,3,4,2,4,1,4,1,7,1,6,1,5,{24}1,2,3,
{16}4,6,5,7,5,7,5,7,3,4,2,4,2,4,2,4,
1,6,2,5,3,,{24}6,5,6,5,,,3,4,3,4,,,2h[16:2]/5,,,
{16}6b,5,4,7b,6,5,8b,7,6,,{24}1b/4b,52,63,7h[8:2]/4,,,,,,
{16}2b,3,4,1b,2,3,8b,1,2,,{24}8b/4b,37,26,1/5,8,7,6,5,4,
{16}3b,,6,6/5,,3,3/4,,8/1,,6,5/7,,3,2/4,,
{24}
8,7,6,1,2,3,7,6,5,2,3,4,
1,2,3,8,1,2,7,8,1,6,7,8,
{4}5bV71[8:2],1V35[8:2],5<1[32:8],1,
3V17[8:2],7V53[8:2],3>6[16:5],7,
5V71[8:2],1V35[8:2],5V71[8:2],1V35[8:2],5<4[16:6],,,18,
4V28[8:2],8V64[8:2],4q3[32:9],8,
7V13[8:2],3V57[8:2],7p8[32:9],3,
4V28[8:2],8V64[8:2],4V28[8:2],8q6[8:2],6>1[16:5],,
{8}8,7,6-3[8:1]/1-4[8:1],,6b/1b,,
{16}2,1,3,8,4,7,5,6,4-1[8:1],7-2[8:1],3,8,,,,,
3,4,2,5,1,6,8,7,1-5[8:1],6,2,5,
{8}1b-6[8:1],,1b-4[8:1]/2b,,8b/1b,6b-2[8:1],,6bV47[16:4]/5b,4b-1[16:2],,,,{24}8v5[8:1]/2v5[8:1],,,46,,,28,,,,,,
{16}
2,8,2,8,5<1[32:6],6,5,6,2,3,4,5,2,3,4,5,
{16}3,4,3,4,8<4[32:6],7,8,7,3,2,1,8,
{24}3b,2,1,8,7,6,
{16}2b,4,2,4,5,4,5,4,5b,7,5,7,8,7,8,7,
1b,4,3,1b,5,6,1b,5,3,1b,5,7,
{32}1bs5[8:32],2,3,4,5z1[8:31]/1,6,7,8,{1}1b/5b,,
