&title=3分ガール
&artist=HIMEHINA
&first=-0.042
&des=OCINHTUA
&lv_5=14
&des_5=OCINHTUA
&inote_5=
(290){4},,,8b,
8b,8b,8b>2v3<5b[1:6],Ch[1:3],
{1},,,{8},E1,
B8,B7,E7,A6,{4}Ch[1:2],
{8},,,,,,,,,,,,,,,,E2,
E3,B4,B7/E7/B6,B3,B1,{4}8b>3v5[8:3],
,,,6/3h[4:1],
6h[2:1],3h[4:1],,6h[4:1]/3h[4:1],
{8},,,7x,2x,7x,{4}7x-5[8:1]/2x-4[8:1],
A7/A2,{8}B8f/B7f,B2f/E2f,E6f/B5f,E4f/B3f,,,8x-5[8:1]/1x-4[8:1],
A8/A1,,,7x/6x,A7f/A6f,7x/6x,A7f/A6f,
6x/7x,A7f/A6f,{4}7x/6x,5-7[8:1]/4-2[8:1],A5/A4,
{8},8bxh[4:1]/1bxh[4:1],,,{4}C,{8}3,4,
3,4,{4}3-8[8:1],4-7[8:1],3-1[8:1],
{8}4x,4x,,,B8,B4,7,6,
7,6,8,5,8,5,{4}8bh[8:3],
{8},5,,3,4,3,4,3,
{4}3,{8}4,2,3,2,3,2-4[8:1],
,2-8[8:1],,,,,{4}7xh[4:1],
{8}3,2h[4:1],,6,{4}7h[4:1],{8}4,3h[4:1],
,8,{4}7,{8}5/3,5/3,{4}4-1[8:1],
6-2[8:1],3-7[8:1],{2}5-8[8:1],
{8},8bh[2:1]/3bh[2:1],,,,,6,6,
4,7,4,7,4,7,{4}4h[8:3],
{8},7-2[4:1],,,,,6x/3x,7x/2x,
6x/3x,7x/2x,{4}6x/3x,8h[8:1],{8}1-4[8:1],1-6[8:1],
,,,,5,8,{4}2h[4:1],
{8}6,7h[4:1],,2,{4}1h[4:1],{8}7,8h[4:1],
,2,{4}3,C,1-5[8:1],
6-1[8:1],3-8[8:1],5-8[8:1],2-5[8:1],
6-2[8:1],4bx,4bx,{16}4bx/5bx,E6/E4,,,{8}6x,
{64}2x,1x,{32}8x,,,{8}6x,{64}2x,3x,{32}4x,,,{8}6x,{64}2x,1x,{32}8x,,,{8}6x,{64}1x,2x,{32}3x,,,,,,,{8}5x,
,,8x/1x,B8/B1,7x/2x,B7/B2,
6x/3x,B6/B3,{4}5h[8:3]/4h[8:3],{8},,,,6b/2x,
2x,{4}7b/3x,8b/4b,1bh[16:1]/5bh[16:1],
{8}8h[8:1],4h[8:1],7h[8:1],3h[8:1],6h[8:1],2h[8:1],{4}5b,
{8},5b,,6x-3[8:1]/2x-7[8:1],6x/2x,6x/2x,{4}A7f/A3f,
{8}5x,4x,,4,{4}5,{8}5,4,
,4,{4}5,{2}5h[4:1],
{4}4-6[8:1],4,4-2[8:1],4,
{8},4,,8-6[8:1],1-5[8:1],8,{4}1,
C,7b,{8},7b,,,{4}2-7[8:1],
6-3[8:1],2-7[8:1],6-3[8:1],
{8}1x,1x,{4}1x,{8}5x,5x,{4}5x,
{8}1x,1x,{4}5b/1x,5b,5b/1b,
{8}6,2,6,2,6,2,{4}6-8[8:1],
5-1[8:1],4-2[8:1],7h[4:1],6-8-2-4[8:3],
,,5-7-1[2:1]*-3-1[2:1],5,
,,4/C,5/Ch[1:1],
{1},{24}B1,
B8,B7,B6,B5,B4,B3,B2,E1,E8,E7,E6,{4}E5,3b-8[8:1],
6-1[8:1],2-5[8:1],7-4[8:1],3-6[8:1],
{8}8-5[8:1],8,,1-4[8:1],,6-3[8:1],,2-6[8:1],
2,7-4[8:1],{4}7,{8},3>1[8:1],,5,
{32},D1,A8,D8,A7,D7,A6,D6,{4}5xh[4:1],{32},,,,,,,,3b/7b,6/2,{16}5h[16:3]/1h[16:3],{32},,,,,,,,,,,,7b/3b,
2/6,{16}5h[16:3]/1h[16:3],{32},,,,,,,,,,,,7b/3b,8/4,{16}5h[16:3]/1h[16:3],{32},,,,,,,,,,,,7b/3b,
4/8,{16}5h[16:3]/1h[16:3],{32},,,,,,,,,,,,7bx,6,{16}5,{32},,,,1bx,
2,{16}3,{32},,,,8bx,7,{16}6,{32},,,,3bx,4,{16}5,{32},,,,8b-4[8:1]/1b-5[8:1],7/2,{16}3/6,,,{4}8b<5[8:1]/1b>4[8:1],
8b/1b,{8},,5x,5x,
3x,3x,4x,4x,2x,2x,3x,3x,
2x,2x,5x,5x,3x,3x,4x,4x,
3x,3x,5x,5x,4x,4x,7x,7x,
6x,8x,{4}8x,{8}3b/5b,5b/3b,,,{4}8p5[4:1]/2q5[4:1],
8/2,,7-4[8:1],
{8}7/2-5[8:1],2,,Ch[4:1],,,,,{4}4w8[4:1],
{8}4,B2/C/E5,{4}B7/B8/E1/B1,3-8[8:1],
{48}A3,E3,B2,B1,E1,A8,,,,,,,,,,,,,{8}5,,,{4}6/8-3[8:1],
6-1[8:1],4-2[8:1],7-5[8:1],4-8[8:1],
{8}7,7-1[8:1],,2,,3b<5[8:1],,A3,
8,2,7,3,6,4,,C,
6/2,6x/2x,{4}2x/6x,,5<7[8:1]/2>4[8:1],
A5/A2,5<7[8:1]/2>4[8:1],A5/A2,A7/A4,
{32}A7/A4,D7/D4,A6/A3,D6/D3,{8}A5/A2,{4}A7/A4,{32}A7/A4,D7/D4,A6/A3,D6/D3,{8}A5/A2,{4}4-6[8:1],
7-1[8:1],3-6[8:1],7>1[8:1],{32}A7,D8,A8,D1,{8}A1,
{64}A2,D3,A3,D4,A4,D5,{32}A5,,,,,1b,8,7,6,,,,,,,,,,,,,{4}Cf/E8/B7/B6/E6/E4/B3/B2/E2,
{8}6/7z3[2:1],7/6,,,{2}Cf,
{4}2v5[8:1],6v1[8:1],3v8[8:1],7v4[8:1],
{8},1,,,{2}B8/B5/E5/B1/B4/C,
{4}7/Cf,3/Cf,6/Cf,2/Cf,
,B8/B7/E7,E1/B2/B1,3b,
{8}B4/B3/E3,E6,E7,E8,E1,E2,{4}6h[8:1]/5h[8:1],
7h[8:1]/8h[8:1],2h[8:1]/1h[8:1],3h[8:1]/4h[8:1],5h[4:1]/6h[8:1],
,4h[8:1]/5h[8:1],2h[8:1]/3h[8:1],5xh[8:1]/4xh[8:1],
8xh[8:1]/7xh[8:1],5xh[8:1]/4xh[8:1],{2}7xh[4:1]/2xh[8:1],
{8}4x/5x,4x/5x,,8x,1x-3[8:1],1x,8x-6[8:1],8x,
1x-3[8:1],1x,8x-6[8:1],8x,1x-3[8:1],1x,8x-5-2[8:3],8x,
,,{4}C,{16},,,,5b,6,7,8,
1,2,3,4,5,6,7,8,{4}1/5b,{8}5,3,
6h[8:1]/E3/B3,,,E1/D1,D2/E2,D3/E3,{4}E4/D4,
8-5[4:1],5z1[2:1],,1-4[4:1],
A1f,,,7-5[8:1]/8-4[8:1],
8-2[8:1]/7-3[8:1],8/7,{8}4,6,{4}5,
{8}5,6,,3,5,3,{4}4,
{8}6,7,{4}5,{8}1,4,2,3,
4,2,,7,5,6,{4}3,
{8}7/2,1-5[8:1],,7,{4}6-3[8:1],{8}3,2-5[8:1],
,7,{4}8-6[8:1],8,1-3[8:1],
6-8[8:1],4-2[8:1],1-5[8:1],1-6-3[4:1],
{8},A6,{4}A3,,7-4[8:1],
1-5[8:1],8-6[8:1],2-4[8:1],C,
{8}1,3-5[8:1],,3/6-2[8:1],,6,,4,
7,4,{4}7,{8}4v1[8:1],7v4[8:1],,A1/A7,
A4/C,A3/B3/E3,{4}B7/E7/B6,,5bh[4:1]/1bh[4:1],
{32},8/4,{16}3/7,,,{4}1bh[4:1]/5bh[4:1],{32},4/8,{16}3/7,,,1b/5b,2,3,4,
5b/1b,6,7,8,1b/5b,2,3,4,{2}5bh[4:1]/1bh[4:3],
{4}2bh[2:1],{32},,,,,,,,,,,,,,,,6x/3x,5x/4x,,,,,,,7x/2x,
6x/3x,{16}5x/4x,{32},,,,1b/8b,7x/2x,6x/3x,5xh[32:9]/4xh[32:9],,,,,,,,,,,,,{8}B5/E6,B4/E4,
E7/D7,E3/D3,E8/B8,B1/E2,8,1,8,1,
8,1bh[4:1],,8b,,,{4}7bx-1-6-2-5-3b[4:7],
C,Ch[2:3],,,,,,,5-3[8:1]/4-6[8:1],
5/4,,6/3-5[8:1],
{8}7/3,7-4[8:1],,2-4[8:1],,2/6,,,{4}8-5[8:1]/2-5[8:1],
8/2,E1/B7/B8/B1/B2/C/E5,6-8[8:1],
{8}3,3-8[8:1],,6-8[8:1],,,{4}2bpp4[8:1],
7qq5[8:1],3qq1[8:1],{2}6pp8[8:1],
{8}2v3<5[4:1],8x>2[8:1],,,,C,{16},,5x,6x,
{8}7xh[2:1],{16}5x,4x,{4}3xh[8:3],{8},7xh[4:1],,,{4}8-4[8:1]/1-5[8:1],
1/8,{12},,,5b,4,5,
3b,4,3,5b,4,5,3b,4,3,5b,4,5,
3b,4,3,5b,4,5,3b,4,3,6bh[4:1],,,{4}7bh[4:1],
8bh[4:1],1bh[4:1],3b-6[8:1],
3b-8[8:1],3b,,C,
{8}5/7,6h[8:3]/4h[8:3],,,,,,,{4}5/2h[4:1],
4h[4:1],2h[4:1],3h[8:3],
{8},2h[8:3],,,{2}1h[2:1],
{4}7b,7b,7bq3[8:1]*p3[8:1],7b>7-1-3-5-7[4:11],
,,,C,
,,,C,
,,,C,
{2}C,{4}Cfh[8:1],{8}7,4,
4,5,{4}5h[4:1],{8}3,3h[4:1],,7,
,Cf,7,4,6,5,8,3,
1,2,{4}7-3[8:1],{8}7,2-5[8:1],,6-8[8:1],
,2-5[8:1],,1x,,,3,5,
3,7,{4}3,{8}3,1,,3,
,Cf,3,4,3,5,3,6,
3,7,3,8,3,1,,3,
,8,1,8,{4}1,{8}4x/8x,7x/3x,
8x/4x,3x/7x,{4}8x<6[8:1]/4x>2[8:1],{8}8x/4x,A6f/A2f,,5bh[4:1],
,,2-4[8:1],2x,8-6[8:1],8x,2-4[8:1],2x,
8-6[8:1],8x,,,2s6[4:1],2-6[8:1],,,,Cf,
1/2,1x/2x,{4}1xv4[8:1]/2x-4[8:1],1x-7[8:1]/2xv7[8:1],
1x-5[8:1]/2x-5[8:1],2x/1x,{8}Ch[4:1],E8/B8,,,{4}7b,
7b,{8}3h[8:1],4h[8:1],3h[8:1],4h[8:1],
{4}3h[4:1],{8}5,5,,4h[8:1],5h[8:1],4h[8:1],
{4}5h[4:1],{8}3,3,,,{4}4/6h[2:1],
,7h[2:1],,6-3[8:3],
{8},3<6[8:3],,,{4}6-8[8:1],{8}B1,B2,
B3,B4,{4}B5,7,7-5[8:1],
{8}7h[8:1],,,8/2,,7/1,{4}5/3bh[2:1],
,2bh[2:1],,3b-8[8:3],
{8},8b>3[8:3],,,{4}3x,7b-4[8:1],
3b-8[8:1],6b-1[8:1],{8}2b-5[8:1],2x,,,7h[4:1],
4x,{4}3x,{8}7x/3x,3x/7x,{4}1bx/5xh[2:1],
,8xh[2:1],,5xh[8:3],
{8},1xh[8:3],,,{4}3xh[4:1],{8}7x,4x,
7x-5[8:1],4x,{4}7x,4,1-5b[8:1],
1,1w5b[8:1],1,{8}7,3,
7,3,{4}7,6/4,6/4,
{8}5x,5x,{4}6b/5x,6b/5x,{8}6b/5x,7,
4,5,{4}4,{8}A1,A2,{4}A3,
1b,1b,1b>5[2:1]*<5[2:1],1b,
,,5b>1[2:1]*<1[2:1],5b,
,,1b/8b,{16}8b/1b,2,3,4,
5,6,7,8,1,2,3,4,5,6,7,8,1,2,3,4,
5,6,7,8,{32}1,2,3,4,5,6,7,8,{4}1bx,7x/Ch[2:7],
,5x,,7x,
{8},8x,,,,6xh[8:3],,,,,{4}5xh[4:1],
{8},8xh[4:1],,,,,{4}6x,
,Cfh[2:7],
,,,,,,,,,,,,,,,6b/5b,
{8}4,7,1,8,3,5,{4}2,
{8}6,6,,3bh[4:1]/2bh[4:1],,,8,2,
6,4,7,1,5,3,8,2,
6,4/Cf,,3/Cf,{16},,2x/7x,3x/6x,{4}5bxh[16:13]/4bxh[4:1],
{16},6x,7x,8x,{4}1bxh[4:3],{16},,6x,7x,{4}8bxh[4:1],
{16},,7x/2x,6x/3x,{4}4bxh[4:1]/5bxh[4:1],,4-6[8:1],
1-3[8:1],7-5[8:1],8-2[8:1],4-7[8:1],
{8}3,3-8[8:1],,3-6[8:1],,3x/2x,,A4,
A3,A2,{4}A1/6-3[8:1],{8}2-7[8:1],2,,5-8[8:1],
5,4<6[8:1],{4}4,{12},,,2b,1,2,
8b,1,8,2b,1,2,8b,1,8,2b,1,2,
8b,1,8,2b,1,2,8b,1,8,2bh[4:1],,,{4}3bh[4:1],
4bh[4:1],5b,6h[8:1]/5h[8:1],
7h[8:1]/3h[8:1],8h[8:1]/2h[8:1],{8},,1,5,
2,6,3,7,4,8,4,8,
3,7,3,7,2,6,2,6,
1,5,1,5,1,5,{4}1,
{8}2/6,6/2,,6b-2b[4:1]/2b-6b[4:1],,6b/2b,,,{4}4,
4-8[8:1],,7v4[8:1],
{8}2,2v5[8:1],,7v1[8:1],,2v4[8:1],,,{4}8p4[8:1]*q4[8:1],
8,,3-6[8:1],
{8}7,7-4[8:1]*-5[8:1],,7,,,{4}2,
{8}3/4,3h[4:1]/4h[2:1],,,,3,,6,
3,7,2,6,3,7,2,6,
3,7,{4}2,{8}1/8,1/8,,7x-2[8:1]/3x-6[8:1],
7x/3x,3x/7x,{4}A2f/A6f,{32},,,,,,,,8b,7x,{16}6x,{32},,,,1b,
2x,{16}3x,{32},,,,8b,7x,{16}6x,{32},,,,1b,2x,{16}3x,{32},,,,7b,6x,{16}5x,{32},,,,2b,
3x,{16}4x,{32},,,,7b,6x,{16}5x,{32},,,,2b,3x,{16}4x,{32},,,,8b,7x,{16}6x,{32},,,,1b,
2x,{16}3x,{32},,,,8b,7x,{16}6x,{32},,,,1b,2x,{16}3x,{32},,,,8b/1b,7/2,{16}6/3,{32},,,,1b/8b,
7/2,{16}6/3,{32},,,,8x/1x,7x/2x,6x/3x,5x/4x,,,,,,,,,,,,,{4}2-5[8:1],
{8}8-5[8:1],8,,,{2}3>7[2:1],
{4}7<5[4:1],5>3[4:1],3>1[4:1],1<5[2:1],
{8},4,,,{2}1,
{4}8x,8x,8b-4[8:1],{8}8b<8b[4:3]*>8b[4:3],A4f,
,,,,,,,,,,4-7[8:1],
3-8[8:1],4x,3x,,6b/B2f,
,,{4}2b/B6f,{8},8b/B4f,,,2b/B6f,
,,7b/B3f,,1b/B5f,,8b/B4f,
,,{4}4b/B8f,{8},7b/E4f,,,1bh[8:1]/B6f/B5f/B4f/E5f/E6f/A5f,
,,8b>2v3<5b[4:1],,8b,{4}Cf/A8/B7/B8/B1/B6/B5/B4/B3/B2/A4,
E
