&title=其のエメラルドを見よ
&artist=庭師
&first=0
&des=MMFC
&lv_5=14+
&inote_5=(183)
{1},
{16}4,,,,,,,,,,,,,,,,
,,E8,,,C,,,E4,,,C,,,E8,,
4h[16:1],,,,,,,,,,,,,,,,
4h[16:1],,,,,,,,3h[16:1]/7h[16:1],,,,,,,,
4/E8,,,E7,,,4/A6,,,E7,,,4/E8,,,E7,,,4/A6,,,E7,,,4/E8,,,E7,,,D3,,
4/A2,,,E2,,,E1,,,E2,4x,,A2,,4x,E2,,,4x/E1,,,E2,4x,,
{24}5x,6x,7x,,,,
{16}3x,8,3,8,
3hx[32:1],,,,3,,E2,,3,,,,3,,E1,,
3,,,,3,,E8,,3,,E7,,2,,A1,,
6hx[32:1],,,,6,,D8,,6,,,,6,,D1,,
6,,,,6,,D2,,6,,D3,,7,,B7,,
2hx[32:1],,,,2,,28,,2h[8:1],,,,2h[8:1]/6,,,,2h[8:1]/7,,,,2,,24,,2h[8:1],,,,8/2h[8:1],,,,
{12}3,6,1,4,2,8,{16}3,4,5,6,8,7,6,5,
4/1b,,,,,,,,,,,,2,,,,
E4/7h[8:1],,,B4,,,B5,,7h[8:1]/6x,,,,,,2,,
E4/7h[8:1],,,B4,,B5,,,6x/7h[8:1],,,,,,2x,3x,
4x/7h[8:1],,,3x,,,2,,2v7[2:1]/7h[4:1],,,,,,,,
,,,,,,,,
{12}6h[12:1],5h[12:1],4h[12:1],3,,,
{16}E6/2h[8:1],,,B5,,,B4,,2h[8:1]/3x,,,,,,7,,
E6/2h[8:1],,,B5,,B4,,,3x/2h[8:1],,,,,,7x,6x,
5x/2h[8:1],,,4x,,,3,,7/2h[8:1],,,,18,,,,
2h[8:1]/7h[8:1],,,,,,,,36,,5,5,4,,7,,
56,,,4,6,,3,,26,,,,6,,5,,
64,,3,3,6,2,,,61,,,,6,,3,4,
65,,,4,6,,3,,62,,,,6,,,,
{12}74,8,1,26,3,4,
58,7,6,51,4,3,
{16}26,,,8,2,,7,,62,,,,2,,1,,
28,,7,6,52,4,,,21,,,8,2,,7,,
26,,,7,2,,6,,25,,,,37,,,,
18,,,,26,,,3x,4x/7h[16:1],5x,6x,7x,8x/5h[16:1],1x,2x,3x,
4x/E1,E8,E7,E6,,2,,1,5,,,6,,,7,,
8/E5,E4,E3,E2,,6,,5,1h[16:1],,,2h[16:1],,,3,,
4/E1,E8,E7,E6,,2,,1,A5,A6,A7,A8,A1,A2,A3,A4,C,,,E3/D3,,,E7/D7,,,,D1f,,
{12},2x,8x,
{16}2x,3,4,5,,7x,,1x/8x,7x,6,5,4,3,2,1,8,2x,3,4,5,,7,,28,,,{24}
E8,B7,B6,
{16}E6,,3x,4,3,,6x,5,6,,2x,4,2,,7x,5,7,4,5,3,4hx[16:3],,,8hx[16:3],,,4xpp5pp6-1b[1:1],,,,4x,,,,Chf[8:5],,,,,,,,,,,,,,,,,,
3,,1x,8,72,,5,,3,4,,4,2,,8,,3,,7,6,52,,4,,31,,8,,72,,6,5,43,,E5,E6,E7/2,E8,E1,,3,,E5,E6,E7/2,E8,E1,,3,,2,8,2,{32}E4,E5,E6,E7,E8,E1,
{16}E2f,,,,4b/7b,,,,
6,,8x,1,27,,4,,6,5,,5,7,,1,,6,,2,3,47,5,6,,
{16}7x-3[8:1]/1b,,,,47,,,,72,,,3,6,,46,,7/5x,,,,28,,,,
{12}3,4,3,5xh[12:1],2,7,5xh[12:1],6,1,5xh[12:1],2,8,
{32}E4,E5,E6,,,,,,,,,,,,,,,,,,,,,,
{4}8<5[2:7],1h[4:1],,1h[4:1],,1h[4:1],,1h[4:1],,2h[4:1],,3h[4:1],,4,,2,
{8}1,1x-5[8:15],,,6,6,6h[4:1],,,,7,7,,8,8,,1,1,1h[4:1],,,,28,{24}E3,B3,B4,E5,,,,,,
{16}7,,,,18,,,,2,,3,,8,,7,,6,,7,1,6h[8:1],,,,3,,2,8,3h[8:1],,,,
{12}7,7,4,6,3,5,4,6,3,5x,,,
{16}2xh[8:1],,4x,5,6,,4,,7xh[8:1],,5x,4,3,,6,,3,,,26,,,5,,37,,E6,E5,E4,,,,
2x,1,8,7,6,5,4,3,2/6x,7,8,1,2,3,4,5,
62,,E3,B3,,B6,B5,E5,,E2,E3,E4,,E6,E7,E8,,,1,,1,,28,,38,,48,,58,,68,,
7h[4:1]/8h[4:1],,,,,,,,21,,,,38,,,,
2h[8:1]/4h[8:1],,,24,,,16,,7h[8:1]/5h[8:1],,,75,,,83,,
2h[8:1]/4h[8:1],,,24,,,16,,7h[4:1]/8,,,,5,4,3,,
1h[8:1]/2h[8:1],,,12,,,46,,8-4[8:1]/7-4[8:1],,,,87,,,,
2h[8:1]/6h[8:1],,,26,,,48,,15,,,,8,7,6,5,
{12}4x/A1,,E2,4x,E3,,4x/A1,,E2,4x,E3,,
4x/D1,,B1,4x,B3,,4x/D1,,B1,4x,B3,,
58,,16,,27,,3/B8,,C/2,,B4/1,,8,8,8,4,4,4,7,7,7w3[8:1],,,7bpp6[2:1],
{6},,3,3V15[8:3],,8,6V48[8:3],,3,1V73[8:3],,
6,4bz8[3:1],,,2V48[8:3],,5,7V15[8:3],,2,4v2[6:1],4,,
{12}6,5,,28,,3,4,,1/5h[12:2],,2,,
{12}3,3x,,71,,6,6,,84,,15,,2/6h[4:1],,,3,,,4/6h[4:1],,,5,,,
1/6h[4:1],,,2,,,3/6h[4:1],,,4,,,
8/6h[4:1],,,1,,,
{8}26,6,
{16}3,4,5,6,7/8b,,,,,,,,,,,,,,,,,,,,,,,,
{12}2,2,2,
{16}7,6,5,4,3b,,A8,,3,,A6,,3,,A8,,3,,A6,,2/E5f/B5/B4,,,,,,,,6/E1f/B1/B8,,,,,,,,
6,,4,,6/8x,1,2,,7,,5,,7/1x,2,3,,8,,6,,62,3,4,,61,2,3,,68,1,2,,37,8,1,2,3,4,5,6,73,2,1,8,7,6,5,4,
{24}7,8,1,2,3,4,57,8,1,2,3,4,58,,8,,8,,8,,,,,,
{1}3b/7b,,,,
{16}3,,,4,,,5,,56,,,,4/7h[4:1],,,,3h[4:1],,,,4,,,,25,,,,1w5b[8:1],,,,1b,,,,,,,,,,,,1h[8:1],,,,28,,28,37,46,5,,{24}B4,B3,E3,A2,,,{16},5bh[32:1]/6bh[32:1],,2bh[32:1]/8bh,,5bh[32:1]/3bh[32:1],,8bh[32:1]/1bh[32:1],,{32}2b,3,4,5,6,7,8,1,
{16}2/6-1[8:1],,4,4,6,,2,,8-5[8:1],3,,3,8,,2,,6-1[8:1],,2,3,46,,4,,
8-5[8:1],2,,2,8,,2,3,4/7-4[8:1],,,1,7,,3,,2/1-5[8:1],,8,,1,,2,,3/7-3[8:1],,,1,7,,2,,1^4[8:1],,8b,,7b/1,,,,
{16}6/2-5[8:1],,8,8,2,,6,,4-1[8:1],7,,7,4,,6,,2-5[8:1],,6,7,8,1,,,
4b-1[8:1],,,,46,,,,2,,3,7,4,,56,,47,,3,,21,,8,,2h[8:1]/6h[8:1],,,,
3,4,5,6,5b,6,4,6,3,6,2,6,1b,5,2,4,3,3,8,4,7,5,6,6,1,5,2,4,3,8,4,6,1,5,3,8,8h[16:1],,,,
{24}2b,3,4,5,6,7,1b,2,3,4,5,6,
{16}1b,8,3,4,
{24}2b,1,8,7,6,5,
{16}4b,E8,E7,E6,3b,,1,8,{32}2b,3,4,5,6,7,8,1,
{16}2b,,27,27,1b/8b,,,,
{16}6/2-5[8:1],,8,8,2,,6,,4-1[8:1],7,,7,4,,6,,25,,6,7,84,1,,,{24}3b,1,3,1,3,1,
{16}3,,4,5,
{16}62,,,3,6,,4,,65,,2,,36,,4,,5h[8:1]/7,,7,,6,,6,,
5,,,1,1,,2,,
{16}37,,,6,3,,5,,34,,7,,63,,5,,4h[8:1]/2,,2,,3,,3,,
4,,8,,17,,26,,35,,,4,6,,5,,64,,,,3/7h[8:1],,,,
3,6,5,7,2,5,4,6,1,6,5,6,8,6,4,6,2-6[8:1],,3/1b,,,,8-4[8:1],,
1/7b,,,,1w5b[8:1],,2b/8
,,,,,,,,,,
E
