&title=Battle Bastion
&artist=XounZer
&first=0.03
&des=Voranger
&lv_5=14
&des_5=Voranger
&inote_5=
(128){4},{8},,,,,,5/3,
{16}6,4,,3,5,3,{4}5v8[12:1],3,
{8}7/2,{16}3,4,,6,4,6,{4}4q1[12:1],7,
{16}8v5[8:1],,,2,{8}2,3,{16}4q1[8:1],,,5,{8}5,6,
7/8,2/1,3/4,5/6,{2}7v4[8:1]/3>8[8:1],
{8}7/1h[8:1],6,2/8h[8:1],3,{2}5<8[8:1]/4q1[8:1],
{8}2/1h[8:1],4,7/8h[8:1],5,{2}6p1[8:1]/2>5[8:1],
{8}8/4h[8:1],6,1/5h[8:1],3,6/2h[8:1],8,3/7h[8:1],1,
{16}4/7,,,2/6,,,{8}8/3,{4}1-5[16:1]/2-8[16:1],2b/1b,
{8}7b/4b,{24}6,,5,{12}8,{24}2,4,,3-6[12:1],,,2,8,,3,,,7,7,,5,
{8}4/6-3[24:1],8/1,6/4,{24}2,,3-6[12:1],,,2,5,,3,{12}7,{24}7,5,,8,
{8}8<5[8:1],5,3,1,8>4[8:1],4,6,8,
{16}1h[16:3],,,2V84[16:3],{8}2,6,{4}6h[4:1],2b,
{8}6b/4b,{24}5,,3,{12}4,{24}2,1,,3,,,6,6,,5,,,7,8,,2,
{8}1/3,6/4,8/7,{24}3/5,,2>5[8:1],,,5p1[12:1],1,,6,{48},,,,,,,,,,,,{16}7,
8,7,8,7,8,5,4,{24}1,2,1,2,1,2,1,8,7,2/6,3,4,
{4}5/6p3[2:1],,,2,
{2}5h[2:1],3h[2:1],
6h[2:1],4h[2:1],
7h[2:1],5h[2:1],
8h[2:1],{4}6,5,
{2}4h[2:1],6h[2:1],
3h[2:1],5h[2:1],
2h[2:1],4h[2:1],
1h[2:1],{8}3<6[16:1],3,{4}3,
2/8h[8:3],2,{16}3/7h[8:3],,,3,,,{8}3,
{4}4/6h[8:3],4,{16}3/5h[8:3],,,3,,,{8}3,
{2}4h[4:1]/6pp1[1:1],3h[4:1],
2h[4:1],1h[3:1]/7h[6:1],
{4}7/1h[8:3],7,{16}6/2h[8:3],,,6,,,{8}6,
{4}5/3h[8:3],5,{16}6/4h[8:3],,,6,,,{8}6,
{2}5h[4:1]/3qq8[8:5],{4}5,6,
{1}1bs5[2:1]/7bz3[2:1],
{4}3/6>4[16:1],3,{16}4/3,,,3/4,,,{8}5/4,
{4}6/3<5[16:1],6,{16}6,5>3[16:1],6,5,,,,,{4}6/3<5[16:1],
6,{16}5/6,,,6/5,,,{8}4/5,
{4}3/6>4[16:1],3,{16}3,4pp6[8:1],3,4,,,,,8,
4,8,4,1,5,1,5,2,6v8[8:1],2v4[8:1],6,,,,,1,
5,1,5,8,4,8,4,7,3qq1[8:1],7qq5[8:1],3,,,,,2,
6,1,5,8,4,7,3,8,4,1,5,2,6,3,7,
{32}4,5,6,7,8,1,2,3,4,5,6,7,8,1,2,3,{8}4/8bw4[16:1],6b/2b,{4}8b,
{32}8b/2b,7/3,{16}6/4,{48},,,,,,{12}2,{24}6,5,,7,{12}8,{24}3,4,,2,{12}1-3[16:1],{24}4,5-7[16:1],,7,
{8}1-5[16:1],5,{12}1,{24}7,7,,4,{12}5,{24}3,4,,2,{12}1,{24}6,5,{96},,,,,,,,{32}1b-5[12:1]/7b-3[12:1],
2/6,{16}3/5,,,{4}7/1-4[12:1],{12}1/6v3[12:1],{24}7,7,,,{12}6/2v5[12:1],{24}1,1<7[12:1],,,{8}2>4[12:1],
1v6[12:1],2,1,{32}4,5,6,7,8,1,2,3,{4}4/8bs4[8:1]*z4[8:1],
{32},,,,,,,,7b/1b,2/6,{16}3/5,{48},,,,,,{12}2/4,{24}6,5,,7,{12}8-6[16:1],{24}5,4-2[16:1],,2,
{8}8-4[16:1],4,8,{24}2,,5,{12}4,{24}6,5,,7,{12}8v5[12:1],{24}4,3,,1,
{12}8,{24}3,3,,7,{12}1q5[12:1],{24}6,5,,8,{12}1,{24}7,7,,4,{12}6,{24}3,5,,2,
{4}3/6h[4:1],{8}3,{16}4,5,4q8[8:1]*p8[8:1],5,4,5,{4}4,
{1}6pp3[2:1]/2pp6[2:1],
{48}6b/1b,2,3,4h[16:3],,,,,,,,,6b,5,4,3h[16:3],,,,,,,,,{8}1,1/5,1/6,1/7,
{48}3b/8b,7,6,5h[16:3],,,,,,,,,3b,4,5,6h[16:3],,,,,,,,,{8}7,5,3/7,1/5,
{32}7b/3b,6,{16}5h[16:1],{32}3b,4,{16}5h[16:1],{32}7b,6,{16}5h[16:1],{32}3b,4,{16}5h[16:1],{2}7bv2[12:1]*v5[12:1],
{32}1bv4[12:1]/7bv6[12:1],2/6,3/5,4,,,,,{4}7b/1b,{12}5/3,{24}2,1,,5,{12}6v1[12:1],{24}8,7v4[12:1],,3,
{8}6<1[12:1],7,6,{24}3,,7,{12}8,{24}4,3,,1,{12}2,{24}6,5,,7,
{12}7p3[12:1],{24}4,5,,8,{12}7,{24}1,1,,3,{12}4q8[12:1],{24}2,1,,3,{12}4-1[8:1],{24}2,2,,6,
{8}4-7[8:1],5,4>1[8:1],3,4<7[8:1],6,4,2,
3/8,6,4,7,{12}4,{24}4,6,,6,{12}4,{24}4,6,,,{8}5h/3h,
6h/2h,7h/1h,5/2,{12}3,{24}3,5,,5,{12}3,{24}3,5,,,{8}7<4[8:1],
3,2,1,8>3[8:1],4,5,6,
{16}5/4,,,7/3,,,{8}1/6,{4}8-4[16:1]/7-1[16:1],7b/8b,
{8}5/3,5/3,4/6,4/6,{12}5/2,{24}3,5,,2,{12}5,{24}4,5h[8:1],{48},,,,{16}4,
6,4,6,3,5,3,5,{12}4,{24}6,4>1[16:1],,7,{12}4,{24}5,4,{48},,,,{16}7,
8,7,8,7,8,5,4,1,2,1,2,1,2,5,4,
7/8b,,,6/5,{8}6/5b,4/3,{4}2b/1,1s5[8:1]/8b-4[8:1],
{1}8b/1b,
E
