&title=Quon
&artist=DJ Noriken
&first=0.75
&des=DJ Jun
&lv_5=13+
&inote_5=(170)
{16}E7/E3,B7/B3,B8/B4,E1/E5,{8}Cf,,3h[1:2],,5,,
5,,4,,2,,1,,
8,,7,,6h[2:3],,4,,
4,,5,,7,,8,,
1x,{16}E2,B2,B3,B4,B5,,5x/6x,,,,5x/6x,,,,
{8}45,,34,34,34,{16}3,4,2,,7,8,
6,,3,4,2,,1,2,3,4,5,6,7,8,15,4,
3,2,1,8,7,6,5x-1[8:1],,4x-2[8:1],,5x-7[8:1],,4x-8[8:1],,5x,,
4xw8[8:1],,,,4x,,,,
{4}E1/E8/E2/B1/B8/B7/B2/E7/E3/E5/Cf,,
,,{8}7<5[4:1],8,1,,
2>4[4:1],2,1,8,,,8<6[4:1],1,
2,,,,3<5[4:1],3,2,1,
8>2[4:1],8,7,6,5b,,6<8[4:1],5,
4,,,,5<7[4:1],4,3,,
4>2[4:1],4,5,6,,,4>2[4:1],5,
6,,,,3>1[4:1],3,4,5x,
E6,B7/E8,E2,B3/E4,5x/E5,5,5/B4,5,
5/B3,5,5/E3,5,E4/5,5,B3/5,5,
B2/5,5,E2/5,5,1x/E1,1,1/B8,1,
1/B7,1,1/E7,1,E8/1,1,B7/1,1,
B6/1,1,E6/1,1,B4,B3,B2,B1,
B8,B7,B6,B5,E4,E3,E2,E1,
E8,E7,E6,E5,E2,E4/B3,E8,E6/B6,
E2,E4/B4,E8,E6/B5,{16}1x,1x,1x,,28,,37,,
4-1[8:1]/6-2[8:1],,5,,4x/6x,,,,{8}1x-3[8:1],,1,5,
4-8[8:1],,4,7,6,5,4-8[8:1],,
{16}4,,,3,,,2,,{8}1-5[8:1],,1,6,
{16}7,,,8,,,1-5[8:1],,2-6[8:1],,1,,2,,8-4[8:1],,
1-5[8:1],,8>5[4:1],,1,,8,,B1,,B2,,B3,,B4,,
B5,,B6,,B7,,B8,,1,8,3,6,2,7,4,5,
1,8,3,6,2,7,4,5,,,Ch[8:1]/2h[8:1],,,,,,
{8}Ch[8:1]/7h[8:1],,,4x-8[8:1],5x-7[8:1],4x-2[8:1],5x-1[8:1],4x,
5xw1[8:1],,5x,,E5/E6/E4/B4/B5/B6/B3/E7/E3/E1/Cf,,{16}5xh[4:1],3,3,,
2b,,4,,2h[4:1],4,4,,5b,,3,,5h[4:1],3,3,,
2b,,4,,3-6[8:1],,,,3,,,,4xh[4:1],6,6,,
7b,,5,,7h[4:1],5,5,,4b,,6,,4h[4:1],6,6,,
7b,,5,,6-3[8:1],,,,6,,,,5xh[4:1],3,3,,
2b,,4,,2h[4:1],4,4,,5b,,3,,5h[4:1],3,3,,
2b,,4,,1-5[8:1],,,,7-3[8:1],,,,4-7[8:1],,,,
8-4[8:1],,,,2-5[8:1],,,,6b,,,,4x,4x,4x,4x,
4xw8[8:1],,,,4x,,,,E1/E8/E2/B1/B8/B7/B2/E7/E3/E5/Cf,,,,2,2,1-5[8:1],,
3,,1b,,4,4,6-1[8:1],,3,,6b,,2,2,1-5[8:1],,
3,,1b,,4,4,6-1[8:1],,3,,6b,,2,2,1-6[8:1],,
3,,1b,,Cf,,,,5xV31[8:1]/4x>1[8:1],,,,4xV68[8:1]/5x<8[8:1],,,,
4x/5x,,,,E5/E6/E4/B4/B5/B6/B3/E7/E3/E1/Cf,,,,8-4[8:1],6,6,,8b,,5,,
3-8[8:1],5,5,,3b,,4,,8-4[8:1],6,6,,8b,,5,,
3-8[8:1],5,5,,3b,,4,,5,6,7,8,1,2,3,4,
{24}15,2,3,4,5,6,7,8,1,2,3,4,{16}5x-7[8:1],,5x-3[8:1],,5x-1[8:1],,5x,,
5xw1[8:1],,,,5x,,,,{8}E1/Cf,E2,E3,E4,
E5,E6,E7,E8,B1/B2,B3/B4,B5/B6,B7/B8,
{16}C,,1x,1x,1x,1x,1x,,
{64}B1,B2/B8,B3/B7/Cf,B4/B6,B5,,,,{8},5xq1[4:1],,
5,,,,2>5[4:1],,,,
8-4[4:1],,,,3p7[4:1],,,,
6q4[4:1],,,,2q8[4:1],,,,
6v1[4:1],,,,2>4[4:1],,2,,
7<5[4:1],8,1,,2>4[4:1],1,8,,
8<6[4:1],1,2,,3<5[4:1],2,1,,
8>2[4:1],7,6,,5<7[4:1],5,4,3,
2,,Cf/B2/B6/B4/B8,,2x-4[8:1],,2,5,
{16}6,,,7,,,8,,1,,2,,2-4[8:1],,,,
2,,,5,5,,6,,7-1[8:1],,,,7,,6,,
5,,,4,,,3,,2,,1,,8,,7,,
6,,,,18,,{32}E2/E8,B2/B7,B3/B6,E4/E6,{16}4x,5x,4x,5x,4,5,4,5,
4,5,4,5,4,5,2b,5,3b,5,4,5,4,5,4,5,
4,5,4,5,4,5,2b,5,3b,5,4,5,4,5,4,5,
3b,5h[32:1],4h[32:1],5h[32:1],4h[32:1],5h[32:1],4h[32:1],5h[32:1],3b,,,,2b,,,,
1b,,,,Cf,,,,5h[4:1]/7h[4:1],,,,,,,,
2h[8:1]/4h[4:1],,,,,,,,3b/Cf,,,,2b/Cf,,,,
1b/Cf,,,,3h[8:1]/6h[8:1],,,,{8}3/5,6,2/8,2/8,
3/4,6,1/7,1/7,2/4,6,1/8,1/8,
5/6,3,1/8,2/4,6/4,3,7/1,7/1,
6/5,3,8/2,8/2,7/5,3,8/1,8/1,
4/3,6,8/1,7/5,1b,5/7,2/4,1/8,
6/7,3/5,1/2,3/4,5/7,1/8,2/3,4/6,
7/8,5/6,2/4,1/8,Cf/B5/B4/E6/E4,,Cf/B1/B8/E2/E8,,
Cf/E6/B5/B6,Cf/E1/B8/B1,Cf/E4/B4/B3,,Cf/E7/E3/B7/B6/B2/B3,,Cf/E8/B7/B8,Cf/E5/B4/B5,
Cf/E2/B1/B2,,{64}E7/E3,B7/B3/Cf,B8/B4,E1/E5,,,,,,,,,,,,,{8}24,78,56,38,
57,12,34,16,34,67,12,67,
34,27,36,78,45,12,68,34,
18,36,24,68,13,57,34,78,
23,56,13,67,24,78,13,56,
25,67,38,24,67,23,67,23,
18,45,18,45,13,56,28,34,
57,12,64,78,5b/Cf,4b/Cf,3b/Cf,2b/Cf,
1b/Cf,,8x,,E1/E2/E3/E4/E5/E6/E7/E8/B1/B2/B3/B4/B5/B6/B7/B8/Cf,
