&title=Rubato
&artist=雨漏りP
&first=-0.02
&des=韩信
&lv_5=13+
&inote_5=(143)
{16},,,,,,,,2h[8:1]/5h[8:1],,,3h[16:5]/4,,,,,
{16}5,,3,4,,45,,6,5-8[32:5],,,,7,,,,
{16}4-1[32:5],,,,2,,,,7h[8:1]/4h[8:1],,,6h[16:5]/5,,,,,
{16}5,,4,5,,34,,2,4<7[4:1],,,6<1[4:1],,,8>4[16:4],,
{16},2,,,5h[4:1],,,,6h[8:1],,,7h[16:5]/5,,,,,
{16}1,,7,8,,57,,6,4-8[32:5],,,,2,,,,
{16}5-1[32:5],,,,7h[8:1],,,,4h[8:1]/6h[8:1],,,2/5,,3,4,,
{16}56,,7,5,,5,6,,4h[8:1]/5h[8:1],,,3h[8:1]/4h[8:1],,,2/3,,
{16}4h[8:1]/6h[8:1],,,7h[8:1]/5h[8:1],,,5/8,,7,5,6,1,4,3,5-1[8:1],,
{16},,7<3[32:10]/5bpp4[32:9],,,,,,,,,,1,,,,
{16}5h[8:1]/7,,8,,5h[8:1]/6,,8,,7/5,,6,4-7[32:3],,3,,2,
{16},,1,,4/3,,4,2h[8:1],,1,1-5[32:3],2,8,,7h[8:1],,
{16},,1,,4h[8:1]/3,,1,,2/4,,3,5,,64,,7,
{16}7-4[32:3],,8,,1-6[32:3],,2,,3h[8:1],,,8h[16:3]/4h[16:3],,,,,
{16}3/5h[8:1],,1,,5/6h[8:1],,1,,2/4,,3,5-2[32:3],,6,,7,
{16},,8,,3h[8:1]/4,,7,5h[8:1],,6,4-8[32:3],5,3,,2,,
{16}1h[8:1],,,7h[8:1]/8h[8:1],,,6h[8:1]/4,,1h[8:1],,,2h[8:1]/8h[8:1],,,3h[8:1]/4,,
{16}6V47[16:3],,3/5,,,,2,,1-3[32:3]*-5[32:4],,,,1b<2[4:1],,,,
{16},,,,8b,,,,6h[8:1]/1,,2,8-4[32:3],,17,,6,
{16},,7h[8:1],,3,3,6,4h[8:1],,5,5,4,6,,35,,
{16}46,,8,,6/5h[8:1],,8,,7/5,,6,4,,35,,2,
{16}2-5[32:3],,1,,8-4[32:3],,7,,6h[8:1],,,5h[16:3]/1h[16:3],,,,,
{16}6/4h[8:1],,8,,4/3h[8:1],,8,,7/5,,6,4-7[32:3],,3,,2,
{16},,1,,6h[8:1]/5,,2,4h[8:1],,3,5-1[32:3],4,6,,7,,
{16}8h[8:1],,5,7,4,,35,,1h[8:1],,4,2,5,,46,,
{16}7-4[8:1],,4-6[32:3],4,,,2,,1-3[32:3]*-5[8:1],,,,1b,,,,
{16}46,,,46,,,46,,5h[4:1]/7,,,,7,5,6,4,
{16}5V71[8:3],,,4,,,3,,3-5[32:3]*v8[32:4],,,,,,,,
{16}46,,,46,,,46,,7h[4:1]/5,,,,4,6,3,5,
{16}2h[8:1],,5,2h[8:1]/4,,5,4/2,,{12}1,1,1,2/8,,,
{16}53,,,53,,,53,,4h[4:1]/2,,,,2,4,3,5,
{16}4V28[8:3],,,5,,,6,,6-4[32:3]*v1[32:4],,,,,,,,
{16}53,,,53,,,53,,2h[4:1]/4-8[8:1],,,,4,,,{32}3b,4b-1[32:21],
{4}5b-8[8:5],,,,
{16}2h[8:1]/6h[8:1],,,3h[8:1]/4h[8:1],,,6/5,,8h[4:1]/4-1[8:1],,,,,,,,
{16}7-4[16:2],,,8,,,1,,2-7[8:1]/6,,,3,,,4,,
{16}8h[8:1]/5h[8:1],,,4h[8:1]/6h[8:1],,,34,,1h[4:1]/5-8[8:1],,,,,,,2,
{16}2-5[16:2],,,1,,,8,,7,5,6,4h[16:3],,,3,,
{16}2/8h[8:1],,3,,1/7h[8:1],,2,,4h[8:1]/6,,7,,3h[8:1]/5,,6,,
{16}2-5[8:1]/4-7[8:1],,,,2/4,,,,8w4[8:1],,,,8,,,,
{16}2,4,3,7,5,6,3,4,2,1,3,8,4,7,5,6,
{24}4,3,2,1,8,7,6<4[16:5],5,4,3,2,1,8,,,,,,5w1[8:1],,,,,,
{1}5b,,4-1[4:7],,5-8[4:7],,
{8}3,4,5,6,5,4h[4:1],,5,
{16}3/6,,,,36,,4,4,5,,5,4,3/6,,,,
{16}7b/5h[8:1],,,5h[8:1]/6,,,4/5,,4h[8:1]/2,,3,4,,4,5,,
{16}57,,6,5,,5,4,,3h[16:3]/4,,,2h[16:3],,,1,,
{16}2h[4:1]/8,,,,,,7,5,6h[16:3],,,3h[16:3],,,4,,
{16}25,,2,4,,4,5,,5/7,,5/7h[4:1],,8,1,2,3,
{8}4-1[32:3],,5-1[8:1],,6-1[32:3],,7>5[4:2],,2h[4:1],,,1h[4:1],,,{16}2/6,,3,4,
{16}5,,5,,46,,46,,7,5,6,4,5>7[16:5],4,5,,3,,,,4>6[16:5],,,,5,,,,4-1[8:1],,,,
{1}4bp1[4:12]*q8[16:51],,,
{8},,,,1-5[8:1]/8-4[8:1],27,1b/8b,,
{16}7h[8:1]/3,,5,6,,3/8,,,1/6h[8:1],,8,7,,3h[16:3]/4,,,
{16}5<8[8:1],,,2,5-1[8:1],,3,,5/6-8[32:3]*-4[32:3],,,,,,,,
{16}2h[8:1]/6,,4,3,,6/1,,,8/3h[8:1],,1,2,,6h[16:3]/5,,,
{16}1>4[8:1],,,6,1-5[8:1]*-6[8:1],,7,,1,,,,38,,,,
{16}7h[8:1]/3,,5,6,,3/8,,,1/6h[8:1],,8,7,,34,,4,
{16}2h[16:3],,,6,5h[8:1],,7h[8:1],,8,,17,,28,,31,,
{16}4-2[8:1],,5,,7-3[8:1]/4,,6,,7/1-4[8:1],,8,,1/7-3[8:1],,6,,
{16}5b>2[8:1]/7,,,5,5,,7,,1/6h[8:1],,{24}1,2,3,4/8b,,,,,,
{16}7h[8:1]/3,,5,6,,3/8,,2,2h[8:1]/4,,6,5,,4/7h[8:1],,3,
{16}4>1[8:1],,,7,4-8[8:1],,6,,3b-1[32:3]*-5[32:3]/4,,,,,,,,
{16}2h[8:1]/6,,4,3,,6/1,,7,7h[8:1]/5,,1,8,,6h[8:1]/2,,1,
{16}8<5[8:1],,,3,8-4[8:1]*-3[8:1],,2,,8b,,,,1/7,,6,,
{16}5-7[8:1]/2,,4,,2-6[8:1]/5,,3,,8-5[8:1]/2,,1,,2-6[8:1]/8,,3,,
{16}2b/4<7[8:1],,,4,4,,8,,1,,28,,3/7,,4,6,
{16}2,5,3,4,1,5,3,4,2,5,4,6,1,5,4,7,
{16}2h[8:1],,,3h[8:1]/5h[8:1],,,4h[8:1]/6,,7,4,6,5,8b,,,,
{16}36,,36,,4,5,3,6,1-3[32:3],5,3-7[8:1],7,1b,,4b,,
{16}5h[8:1],,,,6h[8:1]/4<2[8:3],,,,5h[8:1],,,,4h[8:1],,,,
{16}3/5h[8:1],,4,,5h[8:1]/7,,8,5,7-1[32:3],4h[8:1],,,7,,5,,
{16}4h[8:1],,,,3h[8:1]/5>7[8:3],,,,4h[8:1],,,,5h[8:1],,,,
{16}8h[8:1]/6h[8:1],,,8h[8:1]/6h[8:1],,,57,,3h[8:1]/4h[8:1],,,3h[8:1]/4h[8:1],,,24,,
{16}1-6[8:1]/5h[8:1],,,,4h[8:1],,,,5h[8:1]/8>3[8:1],,,,6h[8:1],,,,
{16}6/4h[8:1],,5,,4h[8:1]/2,,1,4,2-8[32:3],5h[8:1],,,2,,6,,
{8}7-4[8:1]/1h[8:1],,2h[8:1],,5-1[8:1]/3h[8:1],,4h[8:1],,
{16}8b/5h[8:1],,,7b/4h[8:1],,,{24}6b/3,5,4,{16}3h[8:1]/1b,,,2b/4h[8:1],,,5h[8:3]/3b,,
{16},,,,{24}6,5,4,{8}3<6[32:37],,,,,,,,,,{16},3h[16:1],,E
