&title=Empedrado
&artist=Yuma.Mizo
&first=0
&des=1
&lv_5=14
&inote_5=(260)
{4}
,,,,,,
{12}
35,,,46,,,7h[6:1],,2h[6:1],,8h[6:1],,1-5[8:1],,,1,,,
64,,,53,,,2h[6:1],,7h[6:1],,1h[6:1],,8-4[8:1],,,8,,,
35,,,46,,,7h[6:1],,2h[6:1],,8h[6:1],,1-5[8:1],,,1,,,
6,4,6,3,5,3,7,5,7,2,4,2,8-4[8:1],,,8,,,
{4}
2h[2:3]/6b,,,E4,E5,E6,7h[2:3],,,E7,C,E3,
{12}
1,,1,,,1h[12:13],,,,B3,,,C,,,B7,,,8,,8,,,8h[12:13],,,,B6,,,C,,,B2,,,
{8}
1,,28,,37,,46,,35,,24,,1h[4:1],,7h[4:1],,5,,
{12}
8,4,8,4,8,4,8-4[8:1],,,
{8}
2,,35,,26,,17,,28,,
{12}
3h[6:1],,5,4h[12:5],,,6,,6,,,,1,5,1,5,1,5,1>4[4:1],,,
7,,7,,,6,5V31[2:1],,,1,,,8,,,7<4[4:1],,,
1,,1,,,2,3V57[2:1],,,8,,,1,,,2>5[4:1],,,
8,,8,,,7,6V42[2:1],,,1,,,8,,,7,,,
15,2,3,4,5,6,7,8,1,26,5,4,3,2,1,8,7,6,
{8}
1/5q1[4:1],,2>4[6:1],,,,6q2[4:1],,3<5[6:1],,,,7>2[4:1],,2>5[4:1],,5q6[2:1],,
1h[2:1],,,,,,2V48[2:1],,6,,8V25[2:1],,7,,7,,7,,6-1[4:1],,1,,2,,
{12}83,4,5,6,7,8,1,2,3,
{8}
8/4p8[4:1],,7<5[6:1],,,,3p7[4:1],,6>4[6:1],,,,2<7[4:1],,7<4[4:1],,4p3[2:1],,
8h[2:1],,,,,,7v4[4:1],,4V68[2:1],,3,,1,,2,,31,,
4,4,6,6,2,2,
{12}
8,1,8,1,8,1,8,1,8,
1bx`B1,,,7x`B7,,,2x`B2,,,6x`B6,,,3x`B3,,,5x`B5,,,
4,,4,6,,6,8,,8,5,,5,2,,2,7,,7,
1>4[4:1],,,5x,6x,7x,8x<5[4:1],,,3x,2x,1x,8x>3[4:1],,,4x,5x,6x,7x<4[4:1],,,3x,,1x,,,1hx[3:1],2x,3x,4x,5x,6x,7x,8x/1x,2x,3x,
4x/6x,,,2,1-5[8:1],,,18,,,7<4[6:1],,,,,1b,,,
35,,,7,8-4[8:1],,,81,,,2>5[6:1],,,,,8b,,,
64,,,2,1v6[8:1],,,18,,,7<6-4[6:1],,,,,1b,,,
35,,3,,3,,46,,6,,6,,1,8,1,8,1,8,2bp4[2:1]/7bq5[2:1],,,,,,,,,,,,
2,6,2,6,2,6,
{8}
1,,7-4[6:1],8,7,,2,,8-5[6:1],1,8,,3,,3-8[6:1],4,5,,
{12}
6-1[6:1],,,2,3,4,5,,,
{8}
8h[4:1],,6h[4:1],,5h[4:1],,3h[4:1],,
{12}
8,7,6,5,,,
{8}
1h[4:1],,5h[4:1],,3h[4:1],,
{12}
7,8,1,2,3,4,5,6,7,
{8}
48,,2-5[6:1],1,2,,7,,1-4[6:1],8,1,,6,,6-1[6:1],5,4,,
{12}
3-8[6:1],,,7,6,5,4,,,
{8}
1h[4:1],,3h[4:1],,4h[4:1],,6h[4:1],,
{12}
8,1,2,3,,,
{8}
5,5,3,3,7,7,
{12}
1,8,1,8,1,8,1,8,1-5[3:4],,,,A2,,,A7,,,A3,,,A6,,,A4,,,
6,,6,4,,4,5h[4:1],,,3,,3,5,,5,4h[4:1],,,6,,6,4,,4,5h[4:1],,,
2,,2,4,,4,3h[4:1],,,7,,7,1,,1,8h[4:1],,,2,,2,8,,8,1h[4:1],,,
6,,6,8,,8,7h[4:1],,,5,,,46,,,37,,,
2b,8,1,8,1,8,1,8,1,8,1,8,1,8,1,8,1,8,2b,8,1,8,1,8,1,8,1,7b,5,6,5,6,5,6,5,6,3b,5,4,5,4,5,4,5,4,5,4,5,4,5,4,5,4,5,2b,4,3,4,3,4,3,4,3,6b,4,5,4,5,4,5,4,5,
{4}
3b/B6/B7/A7/D7f/A6,,,,2b/B5/B6/A6/D6f/A5,,,,8b/B3/B4/A4/D4f/A3,,,,1b/B4/B5/A5/D5f/A4,,,,
{12}
6b/B3/B4/E4f,,,1,7,2,8-4[8:1],,,8,,,
3b/B5/B6/E6f,,,8,2,7,1-5[8:1],,,1,,,
6b/B2/B3/E3f,,,8,7,1,8-4[8:1],,,8,,,
3b/5b,,,8,1,8,2b/7b,,,,,,
3,,3,,,5,4h[4:3],,,B7,,,B6,,,B5,,,
3,,3,,,5,4h[4:3],,,B6,,,B7,,,B8,,,
2,,2,,,4,3h[4:3],,,B7,,,B6,,,B5,,,
4,,4,,,5,3h[4:3],,,B5,,,B6,,,B7,,,
8,,,12,,,67,,,23,,,56,,,34,,,
5h[4:1],,,3h[4:1],,,7,,,
2,8,2,8,2,8,2-8[8:1],,,
5,,,34,,,67,,,23,,,78,,,2h[6:1],,8,1h[12:5],,,7,,7,,,,
4,6,4,6,4,6,4>1[4:1],,,
5,,5,,,7,8>2-4[2:1],,,6,,,7,,,8<5[4:1],,,
1,,1,,,3,4<6-8[2:1],,,2,,,3,,,4>1[4:1],,,
5,,5,,,7,8>2-4[2:1],,,6,,,7,,,8,,,
2,3,4,8,7,6,1,2,3,7,6,5,1,2,3,8,7,6,
{8}
1V35[3:1]/5,,6-8[6:1],,,,4V28[3:1],,7-5[6:1],,,,
1>4[4:1],,4<7[4:1],,7q1[2:1],,8h[2:1],,,,,,
6-3[4:1],,3V57-1[3:2],,2,,1,,2,,3,,4q1[3:1],,6,,7,,
{12}
2,3,4,8,7,6,1,2,3,
{8}
8V64[3:1]/4,,3-1[6:1],,,,5V71[3:1],,2-4[6:1],,,,
8<5[4:1],,5>2[4:1],,2p8[2:1],,1h[2:1],,,,,,2-4[4:1],,4-1[4:1],,1-5[4:1],,5V38[2:1],,7,,6,,5,5,3,3,7,7,
{12}
1,8,1,8,1,8,1,8,1,
8bx`B8,,,2x`B2,,,7x`B7,,,4x`B4,,,6x`B6,,,3x`B3,,,
5,,5,6,,6,7,,7,8,,8,1,,1,2,,2,
7<4[4:1],,,3x,2x,1x,8x<5[4:1],,,4x,3x,2x,1x<6[4:1],,,5x,4x,3x,2x>5[4:1],,,6x,,8x,,,8hx[3:1],7x,6x,5x,4x,3x,2x,1x/8x,7x,6x,
5x/3x,,,1,7<4[6:1],,,87,,,1-5[6:1],,,,,8b,,,
46,,,8,2>5[6:1],,,12,,,8-4[6:1],,,,,1b,,,
53,,,1,7<6-4[6:1],,,87,,,1q5[6:1],,,,,8b,,,
74,,6,,3,,52,,3,,6,,1,8,1,8,1,8,2bp4[2:1]/7bq5[2:1],,,,,,,,,,,,
3,6,2,6,1,6,
{12}
8>3[4:1],,,4,5,6,7,,,8<5[4:1],,,4,3,2,1h[4:1],,,4-7[8:1],,,1-5[8:1],,,8,,,4>1[4:1],,,8,7,6,5,,,
4q8[4:1],,,1,2,3,4,,,5p1[4:1],,,8,7,6,5h[4:1],,,
8-3[8:1],,,5-8[8:1],,,4,,,
{12}
3,2,1,8,7,6,5,4,3,
{4}
2hb[4:9]/A1/A8/D1,,,A7/A6/D7,,,A4/A5/D5,,,
{12}
B8,B7,B6,E2,E3,E4,A8,A7,A6,
{8}
1h[4:1]/A5,,4,4,3,,8h[4:1],,5,5,6,,
2,2,6,6,3,3,
{12}
5,4,5,4,5,4,5,4,5-1[3:4],
{4}
,A8,A2,A7,A3,A6,A4,B8,B2,B7,
2h/B6`E6,8h/B3`E4,
{12}
1b,,,8b/2b,,,6,4,5,3,5,4,7,5,6,2,4,3,
8b,,,1b/7b,,,3,5,4,6,4,5,2,4,3,7,5,6,
1b,,,8b/2b,,,7,5,6,2,4,3,8,6,7,1,3,2,
8b,,,1b/7b,,,2,4,3,7,5,6,1,3,2,8,6,7h[12:19],
{4}
,B2`B3,B6`B5,B2`B3,B6`B5,B2`B3,
{4}
4hx[2:1],,6hx[2:1],,3hx[2:1],,7hx[2:1],,2hx[2:1],,8hx[2:1],,1hx[1:1],,,,,,
{12}
1,1,1,1,1,1,1,1,1,1,1,1,1,1,1,1-5[8:1]b,1,1,1b`B1`C`B5,
