&title=OMAKENO Stroke
&artist=t+pazolite
&first=0.68
&des=TRACK Panic!!!
&des_6=TRACK Panic!!!
&lv_6=14!!!!!!!!!!!!!!!!!
&inote_6=(240){4}2b/7b,B6/B5/B4/B3/Ch[4:1],{32},,,,,,,,,,,,,,,,1bx,
2x,3x,4x,5x,6x,7x,8x,1bx,2x,3x,4x,5x,6x,7x,8x,1bx,2x,3x,4x,5x,6x,7x,8x,1bx,2x,3x,4x,5x,6x,7x,8x,
{4}1b-5[8:1],1/7,,,1/7-4[8:1],
1/7,,,8/2-6[8:1],
2/8,{8},,,,4/6,
6/4,1/7,7/1,5/3,5/3,{4}2b/8b,
{8}2-5[8:1]/8-4[8:1],8/2,{4}2/8,,5b/4b,
{8}7-4[8:1]/1-5[8:1],7/1,{4}7/1,,5b/4b,
{8}1-3[8:1]/8-6[8:1],8/1,{4}1b/8b,{8}1-5[8:1]/8-4[8:1],1/8,{4}8b/1b,
{8}8/3,8/3,8/2,8/2,{4}8/1,2b/7b,
4/8,{8}1,1,8/2-4[8:1],2,2/8-6[8:1],8,
8/1-5[8:1],1,{4}5/1,{8}8,8,3/7,7/3,
1/5,5/1,8,8,1/7-5[8:1],7,7/1-3[8:1],1,
{4}8/1,{8}4,4,3/5,3/5,{4}5b/3b,
{8}1/7,7/1,6/5,5/6,{4}6/5,{8}2/4,4/2,
1/7,7/1,4/6,6/4,4/5,5/4,4/5,5/4,
{16}3,6,3,6,3,6,3,6,2,7,2,7,2,7,2,7,
1b,2,3,4,8b,7,6,5,{2}Cf,
{8}5h[4:1]/3qq8[4:5],,,5h[4:1],,,{4}5h[8:1],
5,5,{2}5,
{8}2h[4:1]/8qq5[4:5],,,2h[4:1],,,{4}2h[8:1],
2h,2h,{2}2h,
{8}4/3,4/3,4/3,4/3V51[2:1],,,{4}6b,
{8},,,,7,7,7,7,
{4}6h[8:1]/5h[8:1],{8}6/5,5/6V48[2:1],,,{4}3b,
{8},,,,2,2,2,2,
3/7-4[4:1],3,3,3,{4}3,1b,
{2}2h[4:1]/4-8[4:1],{8}1,1,1,1,
6h[4:1]/2-5[4:1],,,6,{4}6,8b,
{2}7h[4:1]/5-1[4:1],{8}8,8,7,7,
1/7-5[8:1],1,{4}1/7,{8}8/2-4[8:1],8,{4}8/2,
{8}1/7-4[8:1],1/7,{4}1/7,{8}8/2-5[8:1],8/2,{4}7/2,
{8}4/6,6/4,2/5,5/2,4/8,8/4,2/6,6/2,
1/2,2/1,2/1,2/1,{4}2/1w5[8:1],1b,
2-5[8:1],{8}2/1,8-4[8:1],,8/1,{4}1,
{8}2-6[8:1],2,7-3[8:1],7,1-5[8:1],1,{4}1/7,
6-1[8:1],{8}6/5,4-8[8:1],,4/5,{4}5,
{8}6-2[8:1],6,3-7[8:1],3,{4}8,1b,
7-4[8:1],{8}7/8,1-5[8:1],,1/8,{4}8,
{8}7-3[8:1],7,5-1[8:1],5,6,6,{4}4/6,
3-1[8:1],{8}3/4,5-7[8:1],,5/4,{4}4,
{8}8/2,8/2,6/4,6/4,7/1,7/1,5/3,5/3,
{4}2-5[8:1],{8}2/1,6-1[8:1],,6/5,{4}2,
{8}4/2,4/2,3/5,3/5,4/6,4/6,5/7,5/7,
{4}6-1[8:1],{8}6/5,3-8[8:1],,3/7,{4}7,
{8}4/6-1[8:1],6,6/4-8[8:1],4,{4}5/4,{8}1/7,7/1,
{4}2-5[8:1],{8}2/1,6-8[8:1],,6/5,{4}3-1[8:1],
{8}3/4,7-4[8:1],,7/8,1-4[8:1],8,{4}1/8,
{8}4x/8,4/8,3/7,3/7,2/6,2/6,1/5,5/1,
{32}8,7,6,5,4,3,2,1,8,7,6,5,4,3,2,1,{2}8-4[8:1],
{6}6,5,6,5,{12},{4}5,
{2}7h[2:1],3,
{6}3,4,3,4,{12},{4}4,
{2}2h[2:1],{4}5,4,
{6}6,4,5,3,{12},{4}2,
{2}5h[1:1],3,
{6}4,5,4,6,5,7,
{1}6,
{8}7,5,6,4,5,3,4,2,
,8,1,7,2,6,3,5,
,2,4,3,5,4,6,5,
,1,8,2,7,3,6,4,
,7,8,6,1,5,2,4,
,6,5,7,4/6,4,5/3,5,
,2,8,3,7,6,5/3,3,
6/4,6,4,5,7,1,{16}8,8,8,8,
{1}8w4[4:1],
{4},2h[8:1]/8h[8:1],{8}8/2,3h[8:1]/7h[8:1],,7/3,
{1}4h[8:7]/6h[8:7],
{4}6/4,4h[8:1],{8}4,3h[8:1]/5h[8:1],,5/3,
2/6h[4:3],2,2,2,2,2,2,2,
8/4h[4:3],8,8,8,8,8,8,8,
3/5h[4:1],3,3,3,7/1h[4:1],7,7,7,
3b/7b,3/7,1b/5b,1/5,7b/4b,7/4,5b/2b,5/2,
5/1,2,8/4,6,7/3,4,6/2,3,
5/1,2,8/4,6,7/3,2,6,1,
5/2,3,7/4,6,2/5,1/8,,,{4}2V46[4:1],
6V82[4:1],2b,6b,
{8}4/8,7,1/5,3,2/6,5,3/7,6,
4/8,7,1/5,3,2/6,7,3,8,
4/7,6,2/5,3,7/4,,,8/1,
{4}8b/1b,5b/4b,8b-4[8:1]/1b-5[8:1],8b/1b,
{8}8/2-5[8:1],2,2/8-4[8:1],8,8/1-5[8:1],1,1/7-4[8:1],7,
7/3-8[8:1],3,3/6-1[8:1],6,6/2-5[8:1],2,8/2,8,
3/7,7/3,8/2,3/7,{4}8/2,4/6,
1/2,5/6,1-5[8:1]/2-6[8:1],2b/1b,
{8}3-5[8:1],3,3/7-1[8:1],7,7/2-5[8:1],2,2/6-1[8:1],6,
2/6,2,3/4,4/3,6/8h[8:3],6,5,5,
8/4,8,1/5,1,2/6,2,3/7,3,
4/5,4/6,4/7,4/8,{4}1/4xw8[8:1],4b,
1x/7x,{8}2/1,1/8,2-5[8:1],2,2/7-4[8:1],7,
1/7,1,5/3>8b[8:1],3/5,3/6,6,6/1x,1,
3/7,7/3,7/8,8/1,7-4[8:1],7,7/1b-5b[8:1],1,
1/7,7,3/7,3,2-4[8:1]/6-4[8:1],7/1,{4}2/6,
3x/7x,{8}2/1,1/8,1/2-5[8:1],2,2/7-4[8:1],7,
{4}1/7,2,{8}1/5,{16}1-5[8:1],5,1,5,{8}1/7,
7,7,6/7,7,3/7,7,8/7,7,
{4}7/1,2/4,5/7,{8}4/2-5[8:1],2,
2/8-4[8:1],8,8x/1-5[8:1],1,1/7-4[8:1],7,7/2-5[8:1],2,
{4}2/8,4x/6x,{8}1/8,{16}1/8,2/7,3/6,5/4,,,{8}2x/7x-4[8:1],
7,7/3-1[8:1],3,3/5-7[8:1],5,5/2-4[8:1],2,
2/8x-6[8:1],8,{4}2/8,{8}1/5,{16}5/1,6/2,7/3,8/4,,,{8}8b/2b,
{16}3,7,{8}4b/8b,{16}7,2,{8}6b/1b,{16}2,6,{8}3b/7b,{16}6,2,
{8}5b/3b,{16}2,5,{8}1b/6b,{16}7,3,{8}8b/4b,{16}3,6,2,7,2,7,
1,8,1,8,1,8,1,8,{32}2b,3,4,5,6,7,8,1,6b/2-6[8:1],5,4,3,2,1,8,7,
{16}6/2b,Cf,,,,,,,,,,,,,,,{4}2>7[4:7],
,,E6,
{2}B6,B7,
{4}8<4[4:7],,,B7,
{2}B5,{4}E1,E2,
3>7[4:5],,,B4,
{2}B6,C,
{6}7/3,8/4,1/5,2/6,3/7,4/8,
{1}1-5[6:1]/5-1[6:1],
E
