&title=八月の風が吹く頃
&artist=lapix; 棗いつき
&first=0
&des=aoihoshi
&lv_5=13
&inote_5=(148)
{1},
{16},,,,,,,,6-4[8:1],,,,,,3h[4:3],,
,,4,,4,,,,,,5pp5[2:1]*qq5[2:1],,5,,,,
,,,,,,,,28,,,,37,,3/7h[4:3],,
,,5,,5,,,,,,6p3[2:1],,6,,8,,
,,,,,,,,1,,,,3,4,,2b^4[12:1]/5b,
,,6,,6,,5bx/7b-4[8:1],,,,3,,2,,1b^4[8:1]/4b,,
,,7,,8,,1b-6[8:1]/5b-2[8:1],,,,1q3[4:3]/5q7[4:3],,,,,,
,,,,,,,,,,,,,,2-7[8:1]/6-3[8:1],,
,,26,,,,15,,3h[4:1]/7h[4:1],,,,,,2-5[8:1]/6,,
,,8,,7,,6,5,6,5,6,,8,,17,,
2-6[8:1],,2,,5-8[8:1],,5,,4-1[8:1],,4,,7,,8x,,
2x/6x,,1,,57,,8-4[8:1],4,8,4,8,,3,,2,,
1^4[8:1],,2,,5^8[8:1],,6,,4,,3,,2,,1xh[4:1]/4x-8[8:1],,
,,,,3,,2,6,3,5,1,,28,,3x-8[8:1]/7hx[4:1],,
,,,,6,,7,5,7,5,8,,17,,26,,
5-8[8:1],,4,,3,,E3,E4,E5,E6,E7,,1,,2b-4[8:1]/8b-4[8:1],,
,,8b-6[8:1]/2b-6[8:1],,,,2b/8b``Cf,,,,,,3xq5[4:3],,3x,,
,,,,,,,,,,,,,,7p4[4:3],,
,,,,,,,,,,,,,,3>6[4:3],,
,,,,,,,,6,,,,5,,,,
4V28[2:1]*V68[2:1],,,,,,,,,,,,,,5v3>7[4:3],,
,,,,,,,,,,,,,,6^3[2:1]*-3[2:1],,
,,,,,,,,,,,,,,2>7[2:1],,
,,,,,,,,B6,,B5,,B4,,B3f,,
,,,,17,,,,26,,,,4,,3/5h[4:1],,
2,,1,,3,6,4,7,5h[4:1],,8,,6,3,5,2,
4h[4:1],,1,,3,6,4,7,5h[4:1],,8,,6,3,5,2,
4-7[8:1],,4,,2^5[8:1],,2,,8w4[8:1],,,,8,,,,
2-8[8:1]/6-4[8:1],,37,,26,,,,1h[4:1]/5h[4:1],,,,,,8^3[8:1],,
,,4-8[8:1],,,,7^4[8:1],,,,3,,2,,1>5[4:1],,
,,5,,6,,7,,8-3[8:1]*-5[8:1],,17,,,,,,
46,,3,,24,,1,5,1,5,1,,37,,3h[4:1]/7h[8:3],,
,,,,,,,,1-4[8:1]/5-8[8:1],,,,1pp4[8:7]/5,,,,
E7/B6/B7,,,,,,,,6,,6,,5pp8[8:7],,,,
E3/B2/B3,,,,,,,,1,,1,,2,,3^8[4:1],,
,,4,,,,6^1[4:1],,,,5,,,,4v1[4:1]*v7[4:1],,
,,,,,,,,A2/E3f``D3``A3``D4``A4,,,E8f/A8``D8``A7``D7``A6,,,A1/B1f``C``B5``A5,,
,,6x,,7x,,8x,,A7/E7f``D7``A6``D6``A5,,,E2f/A1``D2``A2``D3``A3,,,A8/B8f``C``B4``A4,,
,,1x>5[8:1],,5x<5b[4:1],,,,,,,,,,8bV64[16:3],,
,,5,,3,,1bV35[16:3],,,,4,,6,,8bw4[8:1],,
,,8b,,,,2^5[8:1]/6^1[8:1],,,,,,,,1h[4:1]/5h[4:1],,
,,,,4-1[8:1]/8-5[8:1],,,,48,,,,E7``B6``C``B2``E3,,,,
2-5[8:1]/4,,1,,28,,7-1[8:1],7,,5,5,,4,,3,,
2-5[8:1]/4-8[8:1],,1,,24,,,,7-3[8:1]*-4[8:1],,,,7,,,,
1^4[8:1]/2,,8,,17,,6-4[8:1],6,,3,3,,2,,1,,
2-6[8:1]/8,,,,5-8[8:1]/2,,,,45,,,,2b/6b,,,,
7-4[8:1]/5,,8,,1,1,,2-8[8:1],2,,4,,5,,6,,
7^4[8:1]/5-1[8:1],,8,,75,,,,2-6[8:1]*-5[8:1],,1,,2,,,,
78,,16,,25,,3,5,4-8[8:1],6,5,,47,,6,,
1b/5b,,2b/6b,,3b-8[8:1]/7b-4[8:1],,,,3x/7x,,,,15,,3qq4[2:1]/7,,
,,5,,6,,7,7,,,8,,8,,5v4-2[8:3],,
,,6,,6,,,,7,,8,,1,,2^7[4:1],,
,,5,,5,,,4x^7[4:1],,,1,,2,,3,,
,,4v7[4:1]*p8[4:1],,35,,,,,,,,3,4,3,2b^4[12:1]/5b,
,,5,,6,,7b/5bx^8[8:1],,,,3,,2,,1b^4[8:1]/4b,,
,,7,,8,,1b-6[8:1]/5b-2[8:1],,,,1pp4b[4:3]/5pp8b[4:3],,,,,,
,,,,,,,,,,,,,,2-7[8:1]/6-3[8:1],,
,,26,,,,15,,3h[4:1]/7h[4:1],,,,,,2V86[16:3]/6,,
{16},,5,,4q8[8:1],,4,,3^8[8:1],,3,,5^8[8:1],,5,,
4p8[8:1],,4,,7^4[8:1],,7,,3,,2,,1,,8x,,
2x/6x^3[8:1],,6,,8-4[8:1],,8,,1-5[8:1],,1,,3^8[8:1],,3,,
4^7b[12:1],,,,4/1-5b[12:1],,,1x/8x,,,7p4[8:3],,8,,1,,
,,,,2,,3-8[8:1],5,4,6,3,,7,,6,,
35,,4,,57,,8-4[8:1],4,7,3,8,,3,,2,,
1^4[8:1],,8,,7,,E7,E8,E1,E2,E3,,5,,6b-8[8:1]/4b,,
,,6b/4b-2[8:1],,,,4b/5b-1[8:1],,,,8q2>8b[8:14]/5,,,,Cf,,
