&title=青春のアーカイブ
&artist=40mP
&first=0
&des=凡絵
&des_5=凡絵
&wholebpm=113
&lv_5=13
&inote_5=(113)
{1}
,
{1}
,
{1}
,
{1}
,
{16}
4/7,,,3/6,,,2/5,,,1,2,3,4/5,,,,
{16}
3/5,,,4/6,,,5/7,,,8/Ch[16:3],,,,,,,
{16}
3/7,,,2/6,,,1/5,,,2/6,3,4,5,,,,
{16}
5/7,,,4/8,,,
{384}
1$/3$,1?-5[4:1],
{16}
3?q7q3[4:1],,,,,,,,,
{192}
,,,,,,,,,,,
{16}
4/6,,,1>4[4:1]/Ch[16:1],,,,,E2,,,,,,,,
{16}
3/5,,,8<5[4:1]/Ch[16:1],,,,,E8,,,,,,,,
{16}
4/6,,,1<6[4:1]/Ch[16:1],,,,,E1,,,,,,,,
{16}
5/7,,,2/Ch[16:1],,,,,D3,A5,A3,D6,D4,A6,A4,D7,
{16}
5-2[16:1],,8-4[16:1],,5,,8,,1v6[8:1],2,,3/4,,,,,
{16}
7<4[8:1],,2,3>8[8:1],,E6,,3,,,A7,B7,C,B3,A3,,
{16}
2-5[16:1],,4-8[16:1],,2,,4,,4v7[8:1],3,,1/2,,,,,
{16}
6<1[8:1],,1,2>5[8:1],,E8,,2,,,,,,,,,
{2}
2q5[2:1]/7h[16:7],8x,
{2}
2h[16:7]/7p4[2:1],1x,
{2}
2q5[2:1]/7h[16:7],8x,
{2}
2h[16:7]/7p4[2:1],1x,
{8}
3,3,3,3,
{384}
3,6,
{192}
,,,,,
{32}
,,,
{384}
3,6,
{192}
,,,,,
{32}
,,,
{384}
3,6,
{192}
,,,,,
{32}
,,,
{384}
3,6,
{192}
,,,,,
{32}
,,,
{32}
2,,7,,2,,7,,1,,8,,1,,8,,1,2,3,4,8,7,6,5,1,2,3,4,5,6,7,8,
{384}
1b-5[28.25#64:1],D8,
{192}
,,,,,,,,,,,,,,,
{12}
A7,D7,D3,A3,D4,B8,B7,B6,B2,B3,B4,
{1}
A1f/E1/E2/B1,
{16}
3bx/7bx,,,1bx/5bx,,,4bx/8bx,,,2bx-6[16:1]/6bx-2[16:1],,,,,,,
{16}
3/7<5[16:1],,8,,3>1[16:1]/7,,,3/7,,,8,,3>1[16:1],,8<5[16:1],,
{16}
,,8-4[16:1],,1,,2,3,,,,,,,3/7,,
{16}
6/2>4[16:1],,1,,6<8[16:1]/2,,,2/6,,,1,,6<8[16:1],,1>4[16:1],,
{16}
,,1-5[16:1],,8,,7,6,,,,,2,6,,4-8b[56.5#32:1],
{16}
,,D2/A2/D3,,D6/A6/D7,,,A4f/E4/B4/E5,,,,,7,3,,5-1b[56.5#32:1],
{16}
,,D8/A7/D7,,D3/A3/D4,,,A5f/E5/E6/B5,,,2,,3-1-4-8-5-7[4:3],,4,,
{8}
A3,,,,,,,1/5,
{16}
2b/6b,,,3b/7b,,,4b/8b,,,1b-5[16:1]/5b-1[16:1],,,,,,,
{16}
6/2>4[16:1],,1,,6<8[16:1]/2,,,2/6,,,1,,6<8[16:1],,1>4[16:1],,
{16}
,,1-5[16:1],,8,,7,6,,,,,,,2/6,,
{16}
3/7<5[16:1],,8,,3>1[16:1]/7,,,3/7,,,8,,3>1[16:1],,8<5[16:1],,
{16}
,,8-4[16:1],,1,,2>6[4:1],3,,,6<8[8:1],,8>2[8:1],,2>4[8:1],,
{8}
4-6-1[4:1],,,D8,D7,D6,D5,D4,
{4}
5h[16:3]/D3f,4h[16:3]/D8f,6h[16:3]/D1f,3h[16:3]/D2f,
{16}
1s5[4:3],,,E2,,,E6,,,C,,,5s1[4:3],,,,
{16}
B5,,,B1,,,B6,,,B2,,,Cf,,,,
{16}
3/7,,,1/5,,,4/8,,,2/6,3/7,4/8,1/5,,,,
{16}
6/8,,,2/7,,,
{384}
1$/3$,1?-5[8:3],3?q7q3[8:3],,,,,,,,,,
