&title=Ultimate Force
&artist=Sakuzyo
&first=0.05
&des=Alkene39X
&des_5=Alkene39X
&lv_5=14.99
&inote_5=(270){4},,,,{64}4x>1s5[4:13],
5x<8-4b[64:207],{1},,,{4},,,{16},,,{32},{48}1b/7b,
6x/2x,{24}5xh[24:35]/3xV51-6[24:29],{1},{4},,,{12},,{48}8b/2b,
3x/7x,{24}4xh[24:35]/6x-1-4-2[24:29],{1},{4},,,{12},,{48}1b/7b,
6x/2x,{24}5xh[24:35]/3x-5v8[1:1],{1},{4},,{24},{8}1b,
,2b/8b,
{1}3bxh[1:1]/7bxV51[2:1],
{2}8bxh[2:1],{4}4bx,2bx,
{1}B6/B2/B8/B4/C,
,B7/B5/B3/B1,
,B2/E3/B3,
B7/B6,
Ch[1:1],
{2},1,
{1}E1/B7/B8/E7/E2/B2/B3/E4/1x-4-2-6[4:13]*-6-8-4[4:13],
,,,Ch[1:3]/1>7[2:5],
,,8,
{4}8/2-5[12:1],2/8-4[12:1],8/1-3[12:1],1/7,
{8}5,5,3,3,7,7,1,1,
{4}7-4[12:1],7/1-5[12:1],1/8-6[12:1],8/2,
{8}4,4,6,6,2,2,8,8,
{4}1-5[12:1],1/7-4[12:1],7/1-3[12:1],1,
{8}6,6,4,4,8,8,2,2,
{4}8-4[12:1],8/2-5[12:1],2/8-6[12:1],8,
{8}3,3,5,5,1,1,7,7,
{4}3-1[12:1],3/7-5[12:1],7/3-5[12:1],3/7,
{8}6,6,5,5,4,4,3,3,
{4}6-8[12:1],6/2-4[12:1],2/6-4[12:1],6/2,
{8}3,3,4,4,5,5,6,6,
{4}2-4[12:1],2/6-8[12:1],6/2-8[12:1],2/6,
{8}7,7,8,8,1,1,2,2,
{4}7-5[12:1],7/3-1[12:1],3/7-1[12:1],7/3,
{8}2,2,1,1,8,8,7,7,
{4}1,{24}1x,2x,3x,4xh[24:5],{12},{4}8,{24}8x,1x,2x,3xh[24:5],{12},{4}1,
{24}1x,2x,3x,4xh[24:5],{12},{4}8,{24}8x,1x,2x,3xh[24:5],{12},{4}1h[2:1],
4,5,{8}6-8[8:1],6,
{4},{8}2,2,5,5,4,4,
{4}8,{24}8x,7x,6x,5xh[24:5],{12},{4}1,{24}1x,8x,7x,6xh[24:5],{12},{4}8,
{24}8x,7x,6x,5xh[24:5],{12},{4}1,{24}1x,8x,7x,6xh[24:5],{12},{4}8h[2:1],
5,{8}4,4,6-4[8:1],6-8[8:1],
{4},{8}3,3,5,5,4,4,
{4}2,{24}2x,3x,4x,5xh[24:5],{12},{4}1,{24}1x,2x,3x,4xh[24:5],{12},{4}2,
{24}2x,3x,4x,5xh[24:5],{12},{4}1,{24}1x,2x,3x,4xh[24:5],{12},{4}2h[2:1],
5,5,{8}4<6[8:1],4,
{4},{8}3,3,6,6,5,5,
{4}7-5[12:1],7x/1-3[12:1],1x/7-5[12:1],7x,
{8}2,2,8,8,6,6,4,4,
{4}2-4[12:1],2x/8-6[12:1],8x/2-4[12:1],2x,
{8}7,7,1,1,3,3,5,5,
{1}7p5[4:3]*q2[4:3],
{2},{4}5,4,
{2}3>6[1:1],5,
{4}6<3[1:1],5,4,3,
3>6[1:1],4,5,6,
5,4,{2}3,
6<3[1:1],4,
{4}3>6[1:1],4,5,6,
6<3[1:1],5,4,3,
4,5,6,7,
{2}7<2[1:1],1,
{4}2>7[1:1],1,8,7,
7<2[1:1],8,1,2,
1,8,7,1,
{2}2>7[1:1],8,
{4}7<2[1:1],8,1,2,
2>7[1:1],1,8,7,
8,1,2,3,
(202.5)4b-8[6:71],5x,{2}3xh[8:3],
{4}5x,{8}6x,6x,,{16}3x,2x,{4}1x,
{16}5x,6x,{8}7x,{4},{16}8x,1x,2x,3x,8x,7x,6x,5x,
{4}4bx,5xh[8:1],3xh[8:1],{16}4x,5x,6x,7x,
{8}8x,{16}4x,3x,2x,1x,{8}8x,,{16}1x,2x,3x,7x,6x,5x,
3x,2x,1x,5x,6x,7x,8x,2x,3x,4x,8x,7x,6x,1x,2x,3x,
{4}4bx,5x,{16}3xh[16:5],{4},{8},{16}5x,
,,,6x,,6x,{4},{8}3xh[16:1],{4}3x,
{8}6xh[16:1],6x,{16}1x,2x,3x,5x,6x,7x,3x,2x,1x,8x,7x,6x,
{4}5bx,3x,{16}5xh[8:1],{4},{16}1x,2x,3x,
4x,{8},{16}7x,6x,5x,{8}4x,,{16}3x,2x,{4}1x,
{16}7x,6x,5x,4x,3x,4x,5x,6x,{2}4x-8[8:1],
(270){1}Ch[1:6],
{2},E1,
{4}B1,B2,{2}B3,
,E5,
E4,E3,
E2,{6}B8,B1,B2,
{1}E3,
{2},3h[2:1],
{4}8,7,6,{8}4h[8:1],5h[8:1],
3h[8:1],1h[8:1],2h[8:1],8h[8:1],1h[8:1],7h[8:1],8h[8:1],6h[8:1],
{4}1,2,3,{8}5h[8:1],4h[8:1],
6h[8:1],8h[8:1],7h[8:1],1h[8:1],8h[8:1],2h[8:1],1h[8:1],3h[8:1],
{4}8,7,6,{8}5,5,
4h[8:1],6h[8:1],3h[8:1],7h[8:1],2h[8:1],8h[8:1],1h[8:1],7h[8:1],
2h[8:1],6h[8:1],3h[8:1],5h[8:1],{4}4h[4:1],5>6[8:7],
{1},{4}3/5b,
2-4[8:1],,6,
{8}4b,7-5[8:1],{4}4V28[4:1],,4,
5b<7[8:1],{8}2,2,,3,7,2,
8b,1,8<5[8:1],1,{2}8>3[8:1],
{4}4b-6[8:1],3-1[8:1],,7,
{8}2b-4[8:1],2,{4}5V71[4:1],,3,
4b>2[8:1],{8}7,7,,6,2,7,
1b,8,1>4[8:1],8,{2}1q5[8:1],
{4}3/6pp1[4:5],3,3,3h[8:1],
3,3,3,3,
7/2pp5[4:5],7,7,7h[8:1],
7,7,7,7,
{16}1,2,3,4,1,2,3,4,1,2,3,4,{4}1,
{16}8,7,6,5,8,7,6,5,8,7,6,5,{4}8,
{16}1,2,3,4,1,2,3,4,1,8,7,6,1,8,7,6,
1,2,3,4,1,8,7,6,{32}1,2,3,4,5,6,7,8,1,2,3,4,5,6,7,8,
{1}1p3[4:5]/5p7b[4:5],
,{32}2bx/1h[8:1],
3,{16}4,{8},{32}1b/2h[8:1],8,{16}7,{8},{32}2b/1h[8:1],3,{16}4,{8},{4}8-6b[8:1],
{8}4-2b[8:1],4,5-7b[8:1],5,1-3b[8:1],1,8,8,
{32}7bx/8h[8:1],6,{16}5,{8},{32}8b/7h[8:1],1,{16}2,{8},{32}7b/8h[8:1],6,{16}5,{8},{4}1-3b[8:1],
{8}5-7b[8:1],5,4-2b[8:1],4,8-6b[8:1],8,1,1,
{32}1bx/8h[8:1],2,{16}3,{8},{32}8b/1h[8:1],7,{16}6,{8},{32}1b/8h[8:1],2,{16}3,{8},{16}8/4,7,6,5,
{4}4/8,{16}4/8,1,2,3,{4}4/8,{16}4/8,3/7,2/6,1/5,
{4}4/8-4[8:1],7-3[8:1],6-2[8:1],{8}5,5,
{4}1h[4:1],{8}6h[16:1],6h[16:1],{16}4,3,2,1,5,6,7,8,
{32}2bx/1h[8:1],3,{16}4,{8},{32}1b/2h[8:1],8,{16}7,{8},{32}2b/1h[8:1],3,{16}4,{8},{4}6-4[8:1],
{8}2-8[8:1],2,6-8[8:1],6,2-4[8:1],2,6,6,
{32}7bx/8h[8:1],6,{16}5,{8},{32}8b/7h[8:1],1,{16}2,{8},{32}7b/8h[8:1],6,{16}5,{8},{4}3-5[8:1],
{8}7-1[8:1],7,3-1[8:1],3,7-5[8:1],7,3,3,
{4}4,{24}4b,5x,6x,7x,{12},{24}4b,3x,2x,1x,{12},{16}4/8x,5,6,7,
{4}8/4,{16}4/8,3,2,1,{4}4/8,{8}4/8,1/5,
{4}6/2-6[8:1],3-7[8:1],4-8[8:1],{8}5,5,
{4}2/6,3/7,{2}4h[4:1]/8h[4:1],
{8}3,3,7,7,4,4,6,6,
3-1[8:1],3,7<5[8:1],7,3-1[8:1],3,{4}7<3[4:1],
3>7[4:1],7<3[4:1],3>7[4:1],7,
{8}3,3,6,6,4,4,5,5,
3,3,7,7,4,4,6,6,
2-4[8:1],2,6<8[8:1],6,2-4[8:1],2,{4}6<2[4:1],
2>6[4:1],6<2[4:1],2>6[4:1],6,
{8}2,2,7,7,1,1,8,8,
{16}1,2,3,4,5/1,6,7,8,1/5,2,3,4,5/1,6,7,8,
5/1,6,7,8,1/5,2,3,4,5/1,6,7,8,1/5,2,3,4,
5/1,2,3,4,5/1,6,7,8,1/5,6,7,8,1/5,2,3,4,
5/1b,2,3b,4,5b/1,6,7b,8,1b/5b,6,7b,8,1b/5b,2,3b,4,
5b/1,2,3,4,1x,2x,3x,4x,1b,2b,3b,4b,1,2,3,4,
5/1h[32:1],8h[32:1],7h[32:1],6h[32:1],1xh[32:1],8xh[32:1],7xh[32:1],6xh[32:1],1bh[32:1],8bh[32:1],7bh[32:1],6bh[32:1],1h[32:1],8h[32:1],7h[32:1],6h[32:1],
{8}5b/4b,5b/4b,,2/4,,5/7,8,8,
{16}1,2,3,4,2,3,4,5,3,4,5,6,7/3,8/4,1/5,2/6,
{1}3h[8:7]/7h[8:7],
{4}3-8v5V31[8:17]/7-4v1V75[8:17],3b/7b/E3/B2/B1/E1/D1/E7/B6/B5/E5/D5/Cf,{1},,{2},{32}1b/8b,
2b/7b,3b/6b,4b/5b,
E
