&title=Lemon
&artist=米津玄師
&first=0.83
&des=HPyouyu
&clock_count=4
&lv_5=13
&inote_5=(87)
{1},
{4}4-1[4:1],,5-8[4:1],,4p8[4:1]*q8[4:1],,,,2>5[4:1],,7>2[4:1],,4<7[4:1]*>1[4:1],,
{8},8xb,,,3,3h[8:1],B3/E4,5,6,6h[8:1],E6/B5,3,2,2h[8:1],B3/E3,4,5,5h[8:1],B5/B4,
{16}3,3,3h[4:1],,6,,B7/E7,,7,7,7h[4:1],,5,,B4/B3,,2h[8:1],,5-8[8:1],,,4-1[8:1],4,,,7v2[16:5],7,,,,B5/B4/E5f,,,,,,,,,,,,,,,,,,3,4,5/2-5[12:1],,7,7,2-8[12:1],,
{24}6,,6,
{16}2,,
{24}5,,5,
{16}5-7[12:1],,3,,5-1[12:1],,4,4,5,,
{24}3,,7,7h[8:1],,,8xb,,1,1,,,
{16}2,,2-4[12:1],,5,,2-6[12:1],,
{24}7,,7,2,,,8,,8,8-6[12:1],,,
{16}4,3,8-4[12:1],,2,,18,,2,2,3h[8:1],,
{24}8xb,,4,4,,,
{16}6,5,4/7-4[12:1],,2,2,7-1[12:1],,
{24}3,,3,
{16}7,,
{24}4,,4,
{16}4-2[12:1],,6,,4-8[12:1],,5,5,4,,
{24}6,,1,1h[8:1],,,8xb,,,8,,,
{16}7,,7-5[12:1],,4,,7-3[12:1],,
{24}2,,2,7,,,1,,1,1-3[12:1],,,
{16}5,,1-5[12:1],,7,,81,,7,7,6h[8:1],,
{24}8xb,,1,1,,,8,8,1,1>4[12:1],,,,,,B2/B3,,,,,,
{8}8<5[12:1],8,B7/B6,,4>1[12:1],,B3/B2,,5<8[12:1],5,B6/B7,
{24}1,1,8,8<5[12:1],,,,,,B7/B6,,,,,,
{8}1>4[12:1],1,B2/B3,,5<8[12:1],,B6/B7/4>1[12:1],,
{48}8,7,6,5,,,,,,,,,26,,,,,,37,,,,,,
{64}28,,,,2/8h[16:1],3,4,5,6,,,,,,,,17,,,,1h[16:1]/7,6,5,4,3,,,,,,,,26,,,,26,37,48,15,,,,,,,,,
{32}26,,,,37,,,,
{64}47,,,,5h[16:1]/6,7,8,1,2,,,,,,,,25,,,,3/4h[16:1],2,1,8,7,,,,,,,,36,,,,45,36,27,18,,,,,,,,,27,,,,,,,,27,,,,,,,,8,7,6h[32:7],,1,2,3,4,5,,,,,,,,3,2,1h[32:7],,4,5,6,7,8,,,,,,,,7,6,5h[32:7],,8,1,2,3,4,,,,,,,,4,3,2,,6,7,8,1,,,,,,,,,2,3,4,5,6,7,8h[32:13],,,,,,,,,,7,6,5,4,3,2,1h[32:5],,,,,,,,,,,E2/E8,B2/B7,B3/B6,E4/E6,,,,,,,,,,,,36,,,,,,,,36,,,,,,,,25,,,,25,16,78,,,,,,,,,,74,,,,74,83,21,,,,,,,,,,18,,,,18,27,36,45,,,,,,,,,18,,,,,,,,18,,,,,,,,1v7[12:1],2,3,4,5,,,,,,,,,,,,2,3,4p8[12:1]*q8[12:1],5,6,,,,,,,,,,,,
{64}A4/B4,E5/E4,B5/B3,B6/C/B2,B1/B7,E1/E8,B8/A8,,,,,,,,,,27,,,,,,,,27,,,,,,,,
{8}1-5[16:1],8-4[16:1],1>4[16:1],8<5[16:1],1-4[16:1],8,
{16}1,8,,,
{64}45,,,,54,3,2,1,,,,,,,,,45,,,,45,6,7,8,,,,,,,,,45,36,27,18,,,,,,,,,,,,,E2/E8,B2/B7,B3/B6,E4/E6,,,,,,,,,,,,,
{8}2>5[8:1],,2,8,7<4[8:1],,7,1,
{64}1,2,3,4,5,,,,,,,,,,,,8,7,6,5,4,,,,,,,,,,,,18,27,36,4p2p8p6p4b[32:50]/5,,,,,,,,,,,,,,,,,,,,,,,,,,,,,,,,,,,,,,,,,,,,,,,,,,,,,,,,,,,,,,,,,,,,,,,,,,,,,,,,,,,,,,,,,,,,,,,,,,,,,,,,,,,,,,,,,,,,,,,,,,,,,,,,,,,,,,,,,,,,,,,,,,,,,,,,,,,,,,,,,,,,,,,,,,,,,,,,,,,,,,,,,,,,,,,,,,,,,,,,,,,,,E
