&title=Lava Chicken
&artist=Hyper Potions (Minecraft)
&first=0.05
&des=Steve vs Chicken Jockey
&des_5=Steve vs Chicken Jockey
&lv_5=13+
&inote_5=(157)
{8}C,,C,,C,1,1b,1,
{8}2qq6b[8:3],3h[8:3],,,,3,4,5,6qq2b[8:3],7h[8:3],,,,,1,1s5[8:1],,,8qq4b[8:3],8,3-1b[8:1],3,3,,
{8}2,5qq5b[8:3]*pp5b[8:3],5,,,,,2h[8:3],,,7<4[8:1],7,8>3[8:1],8,5,6,7h[4:3],,5bx,,5bx,,5bx,8h[8:7],
{8}5>4>3>2[8:1],,5,,1pp1[4:1],,1,,5-7[8:1],4-2[8:1],5pp1[8:3],4,,,,,
{8}4qq4[4:1],,4,,5pp5[4:1],,5,,2bx-6b[8:1],1bx-5b[8:1],2bxV48b[4:1],1bx,,,7h[4:5],,
{8},,B5/E5,,,,B4/E4,2h[8:9],,,B4/E5,,,C,C,,
{16}1,8,7,6,1,2,3,4,7,6,5,4,8,1,2,3,
{16}4b/8b-6[8:1],,,,8/3,,2,4,3-5[8:1],4,2,,3/C,,,,6-8[8:1],,,,4/6,,2,1,3<6[8:1],1,2h[8:1],,3,,1,,
{16}7-5[8:1],,,,7/1,,3,4,2-8[8:1],4,3,,2/C,,,,5-7[8:1],,,,2/5,,1,8,2-6[8:1],8,1,,2/7,,,,
{16}1-3[8:1],,,,1/6,,7,5,6-4[8:1],5,7,,6/C,,,,3-1[8:1],,,,5/3,,7,8,6>3[8:1],8,7h[8:1],,6,,8,,
{16}2-4[8:1],,,,2/8,,6,5,7-1[8:1],5,6,,7/C,,,,4-2[8:1],,,,7/4,,8,1,7-3[8:1],1,8,,7/2,,1h[4:1],,
{16}4<7[8:1],,,,2/4,,3h[8:1],,8-4[8:1],,2,2,8,,1,,8v3[8:1],,7v4[8:1],,8V24V68[4:5],,7,,,,,,,,,,,,,,,,,,,,,,,,,,
{8}8h[4:7],6,6,6,5,5,5,5,4,4,3,3,2,1,1,1,
{8}2b/8b<2[4:1],4h[8:3],,,,4,4,4,3b/5b<3[4:1],1h[8:3],,,,,1,7h[8:3],,,5-2[8:1],4,8-4[8:1]/5,7,8-6[8:1],3-1[8:1],8-4[8:1],3q6[8:3],8,3,,,7,8bh[8:3],
{8},,3-6[8:1],4,3/7-2[8:1],8,7/3,4,5>2[8:1],5<8[8:1],5s1[4:1],,,,6,7bh[8:3],,,2-6[8:1],1,2/8V64[8:1],1,8/2,1,8>2[8:1],4z8[4:1],8,4,,,2,3bh[8:3],
{8},,8>3[8:1],7,8/5-1[8:1],4,5/8,7,6h[4:3],8V24<5-1[2:1],8,8,,,,,
{4}7h[8:1],7h[8:1]/B5/E5,7h[8:1],7h[8:1]/B5/E5,8h[8:1],8h[8:1]/B5/E5,8h[8:1],8h[8:1]/B5/E5,
{4}2h[8:1],2h[8:1]/E7/B6,
{8}2h[8:1],8,8/E3/B3,8,
{8}4b<2[4:1]/6b,8h[8:3],,,,,E6/B5,3,6,3,E6/B5,3,7,3,E6/B5,3bh[8:3],,,1<6[8:1],1,2>5[8:1],2,7,8,1bx<6b[8:1],2bx>5b[8:1],1bxs5b[4:1],2bx,,,,,
{8}7x,E1,7x/E2,,7x/E1,E2,7x/E3,E4,7x,E1,7x/E2,,7x/A1,,7bx/A2,A3,
{8}7x,E1,7x/E2,,7x/E1,E2,7x/E3,E4,7x,D1,7x/D2,,7x/E1,,7x/E2,,
{8}2x,E1,2x/E8,,2x/E1,E8,2x/E7,E6,2x,E1,2x/E8,,2x/A8,,2bx/A7,A6,
{8}2x,E1,2x/E8,,2x/E1,E8,2x/E7,,
{16}4,5,4,5,4,5,4,5,4,5,4,5,2b,,,,
{8}8pp4-6<7[4:3],,,,,,,,1qq5-3>2[4:3],,,,,,,7h[8:3],,,E5,E6,B4,B6,B3,B7,E3,E8,A2,A8/Ch[8:3],,,,2h[8:3],,,5,E4,6,B3,7,B2,8,8,8h[4:1],Ch[8:3],,,B7,B6,
{16}1,8,1,8,1,8,1,8,2,7,2,7,3,6,3,6,4,5,3,6,2-6[8:1],7,1,8,
{64}A2/E2/E3,B2,C,B6,A6,,,,,,,,,,,,
{4}3bV57[4:1]/7bv4[8:1],
{8}3/7V13[4:1]/Cf,,5x-8[8:1],,5x,4x,
{32}5x>6[2:1],E6,E7,E8,E1,E2,E3,E4,
{8}5x,,5x-1b[8:1],,
{16}5,,D3,D8,A2,A8,D2,D1,
{32}3bV17[4:1],4,5,6,7,8,1,2,
{8}3/5x-1[8:1],,5,,2<7[8:1],3,4-1[8:1],5,6,6h[8:1],2,,6V42[4:1]/2v5[8:1],,
{8}6/2V86[4:1],,4x-1[8:1],,4x,5x,
{32}4x<3[2:1],E4,E3,E2,E1,E8,E7,E6,
{8}4x,,4x-8b[8:1],,4,,1,5h[8:5],
{8}B1/E2,,E3/D3,,B4/E4,,8,7,6/2v5[8:1],,2/6v1[8:1],7,6/4-7[8:1]*-8[8:1],3,B6/C,,
{16}2-4[8:1],,5,5,2-6[8:1],,7,7,2,,8,5,E7/D7,,4,,
{16}7-5[8:1],,4,4,7-3[8:1],,2,2,7,,1,4,E3/D3,,5h[8:1],,
{16}1h[8:1],,6,6,A2/B2,,7,7,3h[8:1],,8,4,A6/B6,,2,,
{16}8,5,6,4,E7/B6,,2,,1,4,3,5,E3/B2,,7h[8:1],,
{16}1b>5[8:1],,,,1/D8/E8,,,,8h[8:1],,5,6,B3/B4,,7,,
{16}2q6[8:1],,2,,2/E1/D1,,,,7,5,8,4,E7/B6,,2h[8:1],,4<7[8:1],,3,,4/E2/D2,,,,1h[8:1],,4,2,E5/B4,,3h[8:7],,
{8}8b,8<1[8:3],8,8,,,,,
{8}8b/7b-4b[8:1],,8b-3b[8:1]/7b,,8b/7b-4b[8:1],,7b/8b,,
{8}1b/2b-5b[8:1],,1b-6b[8:1]/2b,,
{16}1b/2b,,,3,3b/5,,4/6b,,
{8}5b-1b[8:1]/7b,,5b/6b-8b[8:1],,5b-1b[8:1]/6b,,5b/6b-8b[8:1],,5b-1b[8:1]/6b,,5b/6b-8b[8:1],,
{16}2b/6b,,,3,3b/4,,4/5b,,
{8}5bx/6,7bx,5/6bx,8bx,5bx/6,1bx,2/6bx,B6/E7,
{8}4bx/3,2bx,4/3bx,1bx,4bx/3,8bx,7/3bx,B3/E3,
{8}5bx/6,8bx,5/6bx,3bx,5bx/6,7bx,4/8bx,B8/C/B4,
{32}2bx,3x,4x,5x,6bx,7x,8x,1x,2bx,3x,4x,5x,6bx,7x,8x,1x,
{64}7bx/2x,D7,6x,D6,5x,D5,4x,D4,3bx,D3,2x,D2,1x,D1,8x,D8,7bx,D7,6x,D6,5x,D5,4x,D4,3bx,D3,2x,D2,1x,D1,8x,D8,7bx/Cf/B1/B5,,,,,,,,,,,,,,,,
{4},,,,,,,
E
