&title=furioso melodia (2017 VIP)
&artist=gmtn. (witch's slave)
&first=0.05
&des=HL - KOP
&lv_5=14
&inote_5=(155)
{1},
{12}3,4,3,6,5,6,2,4,2,7,5,7,
{16}4,5,4,5,3,6,3,6,2,7,2,7,
{4}8-5[8:1]/1-4[8:1],8b/1b,
{4}3h[8:1],7h[8:1],1h[8:1],
{8}6,2,7,3,78,5,12,4,
{4}8h[8:1],6h[8:1],4h[8:1],2h[8:1],
{8}78,6,78,5,34,2,34,1,
{4}1h[8:1]/8h[8:1],5h[8:1]/6h[8:1],3h[8:1]/4h[8:1],1h[8:1]/8h[8:1],
{8}23,3,24,4,25,5,26,6,
{8}1h[8:1],C,8h[8:1],C,2h[8:1],C,7h[8:1],C,
{16}4,5,4,5,{8}4>1[8:1],1<3[4:1],,,,,
{8}E8/E1/E2/E3/E7/B7/B8/B1/B2/C,,
{8}5,6,7,
{24}1,8,1,8,,,2b,,,{48}6,,,5,,,4,,,3,,,6,,,5,,,4,,,3,,,
{16}E8,B7,B3,E4,{24}6-2[12:1],5,6,5,6,5,
{1}6,
{16}1h[16:1],,{24}8,7,6,5,,,38,,,{16}2,7,2,7,{24}1-5[12:1],8,1,8,1,8,
{16}1,,,,7h[16:4],,,,2,,3,5,3,,18,,
{16}1,2,3,4,8,1,2,3,7,8,1,2,{24}6,5,6,5,6,5,
{16}6h[16:4],,,,3,,3,,
{24}6,,,7,1,7,1,,,{16}54,,
{4}1b-4[78#16:1]/2b-7[78#16:1],4bs8[106#32:3]/7bz3[106#32:3],
{16},,,,,,,,
{16}7,,6,4,6,,81,,2,,3,4,3,,25,,
{16}2,1,2,1,3,8,3,8,4,7,4,7,{24}5,6,5,6,5,6,
{16}5h[16:4],,,,8,,8,,
{24}6,,,7,1,7,1,,,{16}54,,
{16}1h[16:1],,{48}8,,7,,6,,5,,,,,34,,,,{16},2,7,2,7,{24}1-5[12:1],8,1,8,1,8,
{16}1b,
{16},6,4,6,,81,,2,,3,4,3,,25,,
{16}6,5,6,5,7,4,7,4,8,3,8,3,{24}1,2,1,2,1,2,
{16}1h[16:4],,,,3,,3,,
{24}2,,,3,5,3,5,,,{16}37,,
{16}1,2,3,4,5,6,7,8,15,4,3,2,1,8,7,6,
{16}3,,2,1,2,,38,,6,,7,1,7,,54,,
{16}3,4,3,4,2,5,2,5,1,6,1,6,{24}8,7,8,7,8,7,
{16}8h[16:4],,,,5,,5,,
{24}7,,,6,4,6,4,,,{16}81,,
{16}3h[16:1],,{48}5,,6,,7,,8,,,,,,21,,,{16},3,6,3,6,{24}4-8[12:1],5,4,5,4,5,
{16}4b,
{16},7,1,7,,54,,3,,2,1,2,,38,,
{16}7,8,7,8,6,1,6,1,5,2,5,2,{24}4,3,4,3,4,3,
{16}4h[16:4],,,,2,,2,,
{24}3,,,2,8,2,8,,,{16}45,,
{16}1,6,1,6,3,8,3,8,2,7,2,7,{32}1w5[8:1],2,3,4,5,6,7,8,
{8}1b,
{8},2,13,5,46,8,17,34,56,78,12,{24}3,4,5,6h[24:3],,,
{16}2,1,2,1,4,5,4,5,2,8,2,8,3,5,3,5,1,6,1,6,4,7,4,7,2,5,2,5,
{24}4h[24:1],8h[24:1],4h[24:1],8h[24:1],4h[24:1],8h[24:1],4h[24:1],8h[24:1],4h[24:1],8h[24:1],,,
{8}
26,4,26,4,37,5,37,5,12,34,56,78,
{24}1-5[8:1],2,3,4h[24:3],,,1b,,,,,,
{12}2,3,4,1,2,3,8,1,2,7,8,1,
{16}27,,3,6,3,6,
{24}4-8[16:1],5,4,5,4,5,4,,,
{16}7,1,7,1,7/Cf,,,,
{4},,,{8}B5,B2,B7,E4,E1,E5,E3,B6,
2,4,2,5,6,5,6,3,B1,B6,B3,E8,E5,E1,E7,E3,
1,6,2,7,1,7,1,6,B1,B6,B7,E4,E1,E5,E3,E7,
3,6,4,7,5,7,3,6,B3,B6,B5,E1,E6,E2,E4,E8,
{16}45,,3,4,3,,3,5,3,,3,6,3,,3,7,3,,
{8}8,18,8,28,8,38,8,48,
{16}7,8,7,,7,1,7,,7,2,7,,7,3,7,,
{8}4,54,4,64,4,74,4,84,
{16}2,1,2,,6,5,6,,3,4,3,,7,8,7,,
{8}2,52,2,62,6,76,6,
{12}86,8,8,5,5,5,2,2,2,7,7,7,3,5,1,8,4,6,2b/7b,2b/7b,2b/7b,2b/7b,,,
{12}1-5[12:1],,1,8-4[12:1],,8,2-6[12:1],,2,4x-8[12:1],,4x,3-7[12:1],,3,2-6[12:1],,2,1-5[12:1],,1,8,,2b/7b,3>1[12:1],,3,5>3[12:1],,5,7<5[12:1],,7,1<7[12:1],,2,1-5[12:1],,3,1>3[12:1],,4,1,,
5,7,,1b/8b,2,,18,7,,18,3,,18,6,,45,3,,45,6,,45,3x,3x,45,6x,6x,
4b/5b,4b/5b,,1-3[12:1],8-6[12:1],,1-5[12:1],8-4[12:1],,1,8,,3,7,,3,1
,,7h[12:1]/5h[12:1],,1h[12:1]/3h[12:1],,8h[12:1]/6h[12:1],,2b/7b,
{12}6,5,6,4,5,4,6,5,6,3,4,3,6,4,5,3,4,3,5,4,5,46,,2b,
7,8,7,1,8,1,7,8,7,2,1,2,7,1,8,2,1,2,8,1,8,71,,6b,
4,6,4,5,4,5,3,5,3,7,5,7,3,5,4,7,5,6,2,4,3,16,,5b,
3x/4x,3,3,1x/2x,2,2,7x/8x,7,7,5x/6x,6,6,
{48}B7,B6,B5,B4,B3,B2,B1,B8,B7,B6,B5,B4,B3,B2,B1,B8,B7,B6,B5,B4,B3,B2,B1,,
{48}4x,5x,6x,7x,8x,1x,2x,3x,4x,5x,6x,7x,8x,1x,2x,3x,4x,5x,,,,,,,
{8}6xv8[78#16:1]/2xv4[78#16:1],,8V62[104#12:1]/4V62[104#12:1],,,,,,
{16}7b,,6,4,6,,81,,2,,3,4,3,,25,,
{16}2,1,2,1,3,8,3,8,4,7,4,7,{24}5,6,5,6,5,6,
{16}5h[16:4],,,,8,,8,,
{24}6,,,7,1,7,1,,,{16}54,,
{16}1h[16:1],,{48}8,,7,,6,,5,,,,,34,,,,{16},2,7,2,7,{24}1-5[12:1],8,1,8,1,8,
{16}1b,
{16},6,4,6,,81,,2,,3,4,3,,25,,
{16}6,5,6,5,7,4,7,4,8,3,8,3,{24}1,2,1,2,1,2,
{16}1h[16:4],,,,3,,3,,
{24}2,,,3,5,3,5,,,{16}62,,
{16}5,3,5,3,7,4,7,4,6,3,6,3,{32}5w1[8:1],6,7,8,1,2,3,4,
{8}5b,,6,57,1,82,4,53,78,12,34,56,{24}3,2,1,8h[24:3],,,
{16}6,5,6,5,8,1,8,1,6,4,6,4,7,1,7,1,5,2,5,2,8,3,8,3,6,2,6,2,
{24}5h[24:1],1h[24:1],5h[24:1],1h[24:1],5h[24:1],1h[24:1],5h[24:1],1h[24:1],5h[24:1],1h[24:1],,,
{8}
26,4,26,4,37,5,37,5,12,34,56,78,
{24}2-6[8:1],3,4,5h[24:3],,,2b,,,,,,
{12}7,6,5,8,7,6,1,8,7,2,1,8,
{16}72,,6,3,6,3,
{24}5-1[16:1],4,5,4,5,4,5b,,,
{16}2,8,2,8,2/Cf,,,,
