&title=INNOCENCE
&artist=藍井エイル
&first=0.095
&des=仙彗星座
&lv_5=13
&inote_5=(183)
{1},
{4},,,
{8},
{16},5,,5w1[8:3],,,,,,,,,,,,,,,
{8}7h[8:2],3h[8:5],,,,,,,5h[8:6],2h[8:5],,,,,,,4h[8:2],6h[8:5],,,,,,,1-5[8:4]/5,,,,,,,,
{4}8b/4b<7[8:4],,,,5bv2[8:4]/8b,,,,
{8}5,,5,,3,,3,,
{16}7,,7,,1,,1,,8,7,6,5,4,3,2,1,
{8}8b/4b-7[8:1],,6,,5-1[8:1],5,2,,3<5[8:1],,7,,8-4[8:1],8,1,,2V46[8:2],,6V82[8:2],,2,,6<4b[8:3],,,,,,
{8}1,,26,,7,7,4h[8:2],,5,5,3,,2h[8:1],4h[8:1],3h[8:1],5h[8:1],4h[8:1],6h[8:1],5-1[8:1],,
{24}5x<4[8:11]/E8,B7,B6,,,,,,,,,,E2,B2,B3,,,,,,,,,,E6,B6,B7,,,,,,,,,,
{8}8b,8b,,,1xp5[4:12]*q4[4:12],,,,,,,,,,,,,,,,,,,,,,,,,,,,,
{8}8,1b,,2,2h[8:1],8,3,7,7h[8:1],4,6,2>5[8:1],,5,,8>3[8:1],8,4h[8:2],,1,8,73,2,1h[8:2]/6,5,4,2,13,8,47,6,
{16}3,4,3,6,5,7,4,8,
{4}3V51[8:6],7,7,7,7V15[8:6],2,2,2,1>7[8:6],8,8,8,8-4[8:1],,
{8}3x,2x,1bx/5bx,,
{8}7,7h[8:1],1,6,2,2h[8:1],5,3,7<4[8:1],,4,,1<6[8:1],1,5h[8:2],,8,1,26,7,8h[8:2]/3,4,5,7,6,6,1,2,
{16}3,4,2,5,1,6,8,7,
{8}1x<6<4[8:8]/6x,,6,,5,,5,,6,,7,,8-4[8:1]/4-2[8:1],,8>3>5[8:8],,3x,,4,,4,,3,,2,,1,,1p4[8:1]*q6[8:1],,1,,,1,1,6,4>1[8:1],,8,8,,1,2,36,7-3[8:1],7,5<4b[8:6],5,,,,,,,,,
{8}48,48,,,26,26,,
{8}1,1-5[8:1],,17,7<4[8:1],,78,,2-4-1-5[8:3],,5,,7,,48,4/8h[8:2],,3,5,7,1-5[8:1],,12,,3<6[8:1],6<3[8:2],3,,,8x,8x,2bx/6bx,,
{8}7-4[8:1],4V61[16:3],7,2-6[8:1],,2,1,8,7-5>4[8:1],4-8[8:1],7,1-3[8:1],,1,8,7,25,3,47,6,25,1,47,8,
{16}1,,28,,37,,46,,3,4,2,5,1,6,8,7,
{8}1bx-6[8:1],,15,5-1[8:1],,2-5[8:1]/5,,2/8-4[8:1],,8,,1h[8:2],,8,2/6h[8:2],,5-2[8:1],8-4[8:1],5,8>3b[8:1],,8<4[8:2],,4pp3[8:3],,,,,1,1,2/8-4[8:1],,
{8}4,3,2-6[8:1],,6,7,8-4[8:1],,1,2,3,6,7-4[8:1],7,1,2,
{8}3h[8:1],4h[8:1],5h[8:1],6h[8:1],2h[8:1],4h[8:1],5h[8:1],7h[8:1],1,2,38,47,
{16}6,5,6,5,7,5,7,5,
{8}8-4[8:1],8,2-5[8:1],2,6-1[8:1],6,4-8[8:1],4,7-3[8:1],7,2,2,1-6[8:1]*-4[8:1],,1,,
{8}8,7,16,2,3,4,5,6,47,3,25,6,47,8,25,1,8,17,26,35,
{16}6,5,7,4,8,3,1,2,3bx/8bx<1[8:4],,,,,,,,,,,,C,,,,
{8}7-4[8:1],7,8,,1-5[8:1],1,8,7x-3[8:1],,4,2,1x-5[8:1],,6,8<8[4:10]*>8[4:10],8x,
