&title=Super Duper
&artist=Jus-2-Mint
&first=0.04
&des=看淋浴头脏脏哈基米
&lv_5=13
&inote_5=(125)
{1},,
{16}7xh[4:1]/5x,,,,C,,,,6h[16:3]/5,,,,C,,5h[8:3]/4,,
,,,,C,,3,4,3h[16:3],,,,C,,3/4,,
2xh[4:1]/4x,,,,C,,,,3h[16:3]/4,,,,C,,4h[8:3]/5,,
,,,,C,,4<6[32:3],5,4-1[8:1],,,,,,,,
6h[16:3],,,5,6,,4/5,,3,4,,4,2,,2,4h[16:3],
,,6h[16:3],,,8h[16:3],,,2,,5,4,5,4,6,,
3h[16:3],,,4,3,,5/4,,6,5,,5,7,,7,5h[16:3],
,,3h[16:3],,,1h[16:3],,,7x,,3x/4x,,5x/6x,,1x/7x,,
8-4[8:1],,{24}2,1,2,8xb,,,{16},,2V46[16:3],,,,8,,7V53[16:3],,
,,1,,2h[4:1],,,,4,,3,5,4,6h[16:3],,4,
4>7[4:1],,5/6,,7,,,,6V82[16:3],,,,4,,3V17[16:3],,
,,5,,5,,6,6,4h[8:1],,5,3h[8:1],,4,4>6[4:1],,
5hx[4:1]/4x,,,,,,,,2/7-2[8:1],,,5,,,3<6[8:1],,
6p2[8:1],,6,,7,,8,,3/1-5[8:1],,,5,,,4h[8:1],,
6qq4[8:1]*pp8[8:1],,5/7,,,,,,3,2/4,,5/7,6,,2,1/3,
,8/6,7,,3h[8:1]/4h[8:1],,,,2-5[8:1],,5V71V35[8:3],5,,,6h[8:1],,
,,E7,,Cb,,,,D5h[4:7],,,,D6,,,,
D7,,,,D8,,,,D1,,,,D2,,,,
D3,,,,D4,,,,D1h[4:7],,,,E8,,,,
E7,,,,E6,,,,E5,,,,E4,,,,
E3,,,,E2,,,,1/8-6[32:3],,,,4-8[8:1],,4,,
7-4b[8:1]*-3[8:1],,,,A7f/D7/D8,,,,1-3[32:3]/8,,1,,5-1[8:1],,5,,
2-5b[8:1]*-6[8:1],,2,,D2/A2f/D3,,,,78,,7,,67,,6,,
56,,5,,{32}4x/5x,3x,2x,1x,8x,7x,6x,5x,{16}4xz8[4:1],,6,6,,1,1,,
{8}7h[8:1],1,1-5[8:1],7-3[8:1],1^4[8:1],7,1b,,
{16}4^7[8:1]/3,,,,2,,,3,3,4,2,,7-3[8:1]/8,,1/2,,7/4,,
2,,5-1[8:1],,3-7[8:1],,5^8[8:1],,3,,5b,,,,
1^6[8:1]/2,,,,3,,1h[16:3],,6,6,5,,7v5[8:1],,5-8[8:1],,7,,
3,,2^5[8:1],,8-4[8:1],,2-6[8:1],,8,,2b,,,,
7^2[8:1]/5,,,,2,,,3,1,2,8,,1v4[8:1]/7v4[8:1],,8,,
1-3b[32:3]/7-5b[32:3],,,,,,,,8x^3[8:1]/7x,,,,8/4^7[8:1],,,,
4-1[8:1]/2,,,,8/4,,7,,6^1[8:1],,1V75b[32:5],,6,,4h[4:1],,
{8},,3-7[8:1]/4,5-1[8:1],3^8[8:1],5,3b,,
{16}7^4[8:1]/8,,7,,4,,2q6[8:1],,2,,6,,8-4b[8:1],,1/7,,8,,
3h[8:1],,6^1[8:1],,4-8[8:1],,6-2[8:1],,4,,6b,,,,
1-6[8:1]/3,,5v2[8:1],,1,,5>7[4:1],,7,,7>3b[16:3],,6,,5h[8:1],,
,,6,,7^4[8:1],,1-5[8:1],,7-3[8:1],,1,,7b,,,,
2/1^6[8:1],,2,,3,,4^1[8:1],,4,,5,,6-1b[8:1]*-2[8:1],,7/8,,
6>1[16:3],,,,7,,7,,6^1[8:1],,5,,4-8[8:1],,3,,
2-5[8:1],,1,,8/2V48b[8:2]*V47[8:2],,,,2b,,,,,,1/6,,
{16}2,4,3,,B2,,B6,,4h[16:3],,,5,4,,2-5[8:1],,
7-4b[8:1],,2b,,7b,,,,5/3h[2:1],,,,5,,,,
5h[4:1],,E1/B1/E2,,E1/B1/E2,,,,7h[2:1]/8,,,,8,,,,
5h[4:1],,E7/B7/E8,,E7/B7/E8,,,,2h[2:1]/8,,,,6,,,,
4h[4:1],,A2/B2/E3,,A2/B2/E3,,,,1/2h[2:1],,,,7,,,,
5,,4/5,,E3/B3,,E7/B6,,3/4,,2,2,1h[8:1],,3,4,
3-8[8:1],4,2,,7b,,,,5/6,,7,7,8h[8:1],,6,5,
6-1b[8:1],5,7,,3b,,,,2/8,,3,4,3,,2/5,,
46,,7,5,6,,1/8,,2,2,4,4,5,5,7,7,
1,1,8,8,{32}2x,3x,4x,5x,6x,7x,8x,1x,{16}2x/6xz2[4:1],,4,4,,1,,3,
3h[8:1],,4,,1-5[8:1]/7,,6^3[8:1],,1qq6b[4:1],,6,,1b,,,,
5x-1[8:1],,4,4,5,,2,2,1,3,5,4,7-3b[8:1],,6/5,,
7/3,,2h[8:1],,6-1[8:1],,4-8[8:1],,6qq3b[4:1],,4,,6b,,,,
2v5[8:1],,4,4,2,,6,6,5,7,1,8,5-7-4-6[8:2],,3/4,,
5,,3,,3v8[8:1],,7^4[8:1],,3pp7b[4:1],,7,,3b,,,,
8p4[8:1],,1,1,8,,2,2,1,3,6,5,7xv4[8:1]*v2[8:1],,6/8,,
7-1b[32:3]*-5b[32:3],,,,,,,,1-6[8:1]/3,,,,1/5-2[8:1],,,,
5^8[8:1]/7,,,,2/5,,3,,4>1[8:1],,1V35b[32:5],,4,,7h[4:1],,
,,,,8-4[8:1],,3^6[8:1],,8pp3b[4:1],,3,,8b,,,,
4-8[8:1],,5,5,,6,6-3[8:1],,7,5,6,,1-5-3[16:3],,1,,
5,,6,,7v4[8:1],,1-5[8:1],,7pp3b[4:1],,1,,7b,,,,
1xv4[8:1],,5-8[8:1],,1,,5V73[4:1],,3,,3V58b[32:6],,2,,2h[8:1],,
,,3,,2-5[8:1],,8-4[8:1],,2qq7b[4:1],,8,,2b,,,,
6^3[8:1],,8,8,,1,1q5[8:1],,5,5,1,,7-3-7b[16:4],,5/1,,
7/3,,,,8x,,8,,1^6[8:1]/7,,2,,3-8[8:1],,4,,
5-1[8:1],,6,,7s3<1b[8:4],,,,2hb[8:4],,,,,,,,,,,,7bv5[8:1]/3b^1[8:1],,A6b/B2b,,,,,,
