&title=go to Romance>>>>>
&artist=Luce Twinkle Wink☆
&first=0
&des=Amaoto
&lv_5=13+
&inote_5=(226.0)
{12},,,,,,,,,,,,3b/7b,,5,,,5,4,3,2,1,8,7,
{8}6,5h[4:1]/4h[4:1],,,3h[4:1]/6h[4:1],,,2h[4:1]/7h[4:1],,,1h/8h,,2h/7h,,3h/6h,,
{12}4b-8[6:1],,,5-7[8:1],,,1-3[8:1],,,8-4[6:1],,,4-6[8:1],,,3,,2-8[8:1],,,7,7,,,
{12}1-5[6:1],,,8-6[8:1],,,4-2[8:1],,,5-1[6:1],,,1-7[8:1],,,2,,3-5[8:1],,,6,6,,,
{12}7>2[4:1],,,6,,,5<8[4:1],,,4,,,3<6[4:1],,,2,,,1>4[4:1],,,8,,,
{12}7,,,6,,,5,,4,6,4,6,7h[2:1]/3h[4:3],,,,,,,,,,,,
{12}1V75[2:1],,,2,,,3,,,,,,8V64[2:1],,,1,,,2,,,,,,
{12}7V53[2:1],,,8,,,1,,1,,,2h[12:4],,,,4,,,35,,,46,,,
{12}5V31[2:1],,,6,,,7,,,,,,4V28[2:1],,,5,,,6,,,,,,
{12}3V17[2:1],,,4,,,5,,5,,,6h[12:4],,,,8,,,7/1-5[8:1],,,1b,,,
{12}4h[4:1]/6h[4:1],,,,,,5,,3,,,2h[4:1]/4h[4:1],,,,4-6[8:1],,,2-4[8:1],,,7,,,
{12}5h[4:1]/3h[4:1],,,,,,4,,6,,,7h[4:1]/5h[4:1],,,,5-3[8:1],,,5-7[8:1],,,5,,,
{12}1V35[12:5],,,8,,,7,,7,,,5V71[12:5],,,,4,,,3,,,2,,,
{12}1/3,,,3/1,,,4,,5,,,6/8,,,,7b<4[4:1]/3b>8[4:1],,,,,,,,,
{12}1,,1,2,,2,3,,3,4,,4,5h[4:1],,,6h[4:1],,,7h[4:1],,,8h[4:1],,,
{12}1q5[4:1],,,8,,,7q3[4:1],,,6,,,5q1[4:1],,,4,,,3p7[4:1],,,4,,,
{12}5,,5,6,,6,7,,7,8,,8,1h[4:1],,,2h[4:1],,,3h[4:1],,,4h[4:1],,,
{12}5q2[4:1],,,4,,,3p6[4:1],,,4,,5,,,5,4,,,2-7[2:1]/3-6[2:1],,,,,,
{12},,,,,,7-2[2:1]/6-3[2:1],,,,,,,,,,,,5pp5[2:1]*qq5[2:1],,,,,,
{12},,,,,,6pp5[2:1]/4qq5[2:1],,,,,,,,,,,,6/4,,,7/3,,,
{12}2b,,2,1,,1,8,,8,7,,7h[3:1],,,,5h[4:1],,,4h[4:1],,,2h[4:1],,,
{12}7,,7,8,,8,1,,1,2,,2h[3:1],,,,4h[4:1],,,5h[4:1],,,7h[4:1],,,
{8}2b,5h[4:1]/3h[4:1],,,4h[4:1]/6h[4:1],,,5h[4:1]/7h[4:1],,,6h/8h,,7h/1h,,8h/2h,,
{8}7b,4h[4:1]/6h[4:1],,,5h[4:1]/3h[4:1],,,4h[4:1]/2h[4:1],,,3h/1h,,2h/8h,,1h/7h,,
{12}8h,,1,4h,,2,7h,,8,5h,,3,6V84[12:5],,,4,,4-7[24:5],,,3,3,,,
{12}1h,,8,5h,,7,2h,,1,4h,,6,3V15[12:5],,,5,,5-2[24:5],,,6,6,,,
{12}7,,7,5,,5,4,,4,2-7[4:1],,2,7-4[4:1],,,4-1[4:1],,,1-6[4:1],,,6,,,
{12}4q8[6:1],,4,2b,,,1q5[6:1],,1,7b,,,6q2[6:1],,6,4b,,,5p1[6:1]*v2[6:1],,,5b,,,
{12}8h,,1,6h,,5,1h,,2,5h,,4,1V73[12:5],,,3,,3V57[4:1],,,2,2,,,
{12}1h,,8,3h,,4,8h,,7,4h,,5,8V26[12:5],,,6,,6V42[4:1],,,7,7,,,
{12}6,,5,7,,3,4,,2,8>4[4:1],,8,4q8[4:1],,,8q4[4:1],,,4<8[4:1],,,8,,,
{12}3h[4:1],,,5h[4:1],,,7h[4:1],,,1h[4:1],,,3h[6:1],,,2/4,,,6h[6:1],,,5/7,,,
{12}2h[4:1],,1p5[24:5],,,1,2,,,3h[4:1],,4q8[24:5],,,4,3>7[4:1],,,7>3[4:1],,,6,,,
{12}5h[4:1],,4-8[6:1],,,4,6,,,7h[4:1],,1-5[6:1],,,1,7,,,7,6,5,1,2,3,
{12}4/6,,,5/3,,,6,4,5,3,6,4,5h[4:3],,,,,,6b<4[4:1],,,,,,
{12}7-2[8:1],,,7/3-7[8:1],,,3/1q5[8:1]*v4[8:1],,,1,,,7/3,,7/3,,,6bv8[4:1]/2bv4[4:1],,,,,,,
{12},,,,,,,,,4,5,4,3/7h[2:1],,,,,,{24}1b,2,3,4,5,6,7,8,1,2,3,4,
{12}5b-1[6:1],,,6-8[8:1],,,2-4[8:1],,,1-5[6:1],,,5-7[8:1],,,4,,3-1[8:1],,,8,8,,,
{12}2-6[6:1],,,1-7[8:1],,,5-3[8:1],,,6-2[6:1],,,2-8[8:1],,,3,,4-6[8:1],,,7,7,,,
{12}5<8[4:1],,,4,,,3<6[4:1],,,2,,,1>4[4:1],,,8,,,7>2[4:1],,,6,,,
{12}5,,,4,,,3,,6,4,6,4,{24}3h[4:3]/7h[4:3],,,,,,,,,,,,,,,,,,,2,1,8,7,6,
{12}5bv7[4:8]/4bV28[4:8],,,,,,,,,,,,,,,,,,,,,,,,
{4},,,,
E
