&title=START
&artist=磁带君,海伊
&first=0.21
&lv_5=13
&des_5=hiyori
&inote_5=
(140){4},{1},{4},,,{16}3h[2:1],
,,,,,,4,{4}5,6h[2:1],
5,{8}4,5/3h[8:3],,,{4}4<6[16:1],
4>2[16:1],{8}4,4h[8:3],,,{4}1>3[16:1],
1/5,{8}B4,B5,{12}B6,B7,B8,B1,{24},{8}B2,
{16}B3,B4,{8}E5,{16},,,E7,{4}E3,3h[2:1],
{8},,5,4/6h[8:3],,,{4}5>3[16:1],
5<7[16:1],{8}5,5h[1:1],{2}8h[2:1],
{8},,,1,,,3h[2:1],{16}B4,B5,
{4}B6,{16}7h[4:3],,,B8,B1,B2,B3,B4,,,,,{8}5h[8:3],
,,7h[8:3],,,{4}1v3<1[8:7],
{2}1,7h[8:3],
{16}B7,B6,{8}B5,3,4,{12}5,6,7,8,{24},{8}1,
{2}2h[4:3],6h[4:1],
{4}1V35[4:1],1/5V71[4:1],{8},4,,,{4}2/6h[2:1],
3,4<8[4:1],4/8>4[4:1],
{8},6,,,3/4,2,4/5,6,
{16}1<6[8:1],8,,2,{8}1,3,{16}4,5,{8}3,{16}6,5,{8}7,
5/6,7,4/5,3,{16}4x/5x,4/5,{8}4/5,{16}3/6,,,8/7,
,,2,1,3,8,4,7,{8}5,5,6,6,
{16}4<7[8:1],5,,3h[16:3],{4}4,{16}5>2[8:1],4,,6h[16:3],{4}5,
{16}8-5[16:1],1,7,2,{4}8,{16}2-5[16:1],1,3,8,{4}2,
6x/4x,{12}3-1[16:1]/7-5[16:1],3/7,3/7,{4}7x/3x,{8}2,6,
{16}5/4x,4,{8}4,3,7,{16}6/5x,5,{8}5,7,3,
{16}4/5x,5,{8}5,6,2,{16}3/4x,4,{8}4,{16}2/5,,,7/4,
,,1,8,2,7,3,6,{8}4,4,6,6,
{16}1<6[8:1],8,,2h[16:3],{4}1,{16}8>3[8:1],1,,7h[16:3],{4}8,
{8}4/5,3/6,2/7,1/8,{16}1,8,1,8,1,8,1,8,
{8}1>5[8:1],5<1[8:1],{4}1,5x,4/5pp5[4:1]*qq5[4:1],
{8}5,,,4h[4:1],,7,6/3,2/5h[8:3],
{4}1v3<1[8:7],1,6,{8}7,8,
,6h[4:1],,1-5[12:1],8,1h[8:11],,,{1}7h[4:5],
{8},2,3h[4:1],8,1h[8:9],4,{4}5h[8:7],
,,{16},,{32},B4/B8,B3/B7,B2/B6,{4}Ch[4:3],
,,6x,5/4qq4[4:1]*pp4[4:1],
{8}4,,,3h[4:1],,5,2/6,7/1h[8:3],
{4}8v5<8[8:7],8,2,{8}3,4,
,2h[4:1],,1-5[12:1],8,1h[8:11],,,{1}7h[4:5],
{8},2,3h[2:1],6,{32}5h[4:1],,,,,,,,,B5/B3,B6/B2,B7/B1,,,,,,,,,,,{16}B2,
{4}B6,{8},5,{32}2/6,,,B7/B3,B8/B4,B1/B5,,,{1}Ch[1:1],
{8},,4/5pp4[4:3],3,{4}5/2-4[8:1],{8}2,A4,
,,{4}3V17[4:1],3/7V53[4:1],3w7[6:1],
,,5h[4:1]/2-5[12:1],{8}2,6,
{12}4,3/5,2/6,7-4[12:1]/1-4[12:1],{24},{8}4,{2}7/1,
{4}C,{8}5/4qq5[4:3],6,{4}4/7-5[8:1],{8}7,A5,
,,{4}6h[4:5],4,{8}3,2h[8:5],
,,,,{4}C,4/5<8[32:3],
{32}5/1b,2,3,4h[32:5],,,,,{8}1-5[12:1],2-4[16:1],1,2,{32}6,7,8,5/1h[32:5],{96},,,,,,,,,,,,{12}4,
3/8,2/7,1-4[12:1]/6-1[12:1],{24},{8}5,{4}6/1b,{8}3/8V64[8:1],4v7[8:1],
8/3,2,{32}1x,2,{16}3h[16:3],{32},,8x,7,{8}6h[16:3],5,{16}4x,7,3x,8h[16:3],
{4}2x>5[8:1],{8}2/6x<1[8:1],D5,6x,D1,{4}4h[8:1]/8x-6[12:1],
5h[8:1]/8x-2[12:1],3h[8:1]/8-4[12:1],{32}8/3,2,{16}1h[16:3],,,{8}5,6/2,
3-5[16:1]/7-1[16:1],2/6,{4}7/3b,{32}6/4,3,2,1,8,7,6,5,{8}4>1[32:3],3x/8bh[8:1],
{32}4,7,6,5,,,,,{8}8x-4[12:1],7-5[16:1],8,7,{32}3,2,1,4/8h[32:5],{96},,,,,,,,,,,,{12}5,
6/1,7/2,8-5[12:1]/3-8[12:1],{24},{8}4,{4}3/8b,{8}6/1V35[8:1],5v2[8:1],
1/6,7,{32}8x,7,{16}6h[16:3],{32},,1x,2,{8}3h[16:3],4,{16}5x,2,6x,1h[16:3],
{4}7x-4[8:1],{8}7/3x-8[8:1],A4,3x,A8,{4}5h[8:1]/1x-3[12:1],
4h[8:1]/1x-7[12:1],6h[8:1]/1-5[12:1],{32}1/6,7,{16}8h[16:3],,,{8}4,3/7,
2/6,5/1,{32}4/8,7,6,5,4,3,2,1,{4}8x/5w1[16:1],5b,
{8}6/2xv5[12:1],5>2[32:3],2,6h[8:1],,7/1V35[8:1],2,{32}1/8,7,{16}6h[16:5],
,,{8}4,3,2/7,8/1V75[12:1],2,{32}1/2,3,{16}4h[16:3],,,{8}6-1[12:1],
2-5[12:1],6,2,{16}8,4,7,3,6,2,{32}5,4,3,2,
1,8,7,6,{16}5-2[12:1],4x,,6,{8}5x,{16}4-7[12:1],5x,,3,{8}4x,2b,
{32}8/1,2/7,3/6,5/4,,,,,{16}8-3[12:1],2,6,4h[16:3],{4}8,{16}1-6[12:1],7,3,5bh[16:13],
{8}1b,A6f,7bx,8bx,1bx,2bx,3bx<6[12:1],7b>2[12:1],
3b,7,5b,8/4bxw8[12:1],,4bqq7[8:11],{4}A8f,
{1}4bh[8:3],
{4},,{16},,{256}4qq5[2:1],6pp5[256:127],{16},,,{64},,,{128},{8}4/6,
,,,,,8-4pp5[8:5],,8/4qq3[8:3],
{4},,{16},,{256}6v7>1[8:5],4v3>1[256:159],{16},,,{64},,,{128},{8}4/6,
,,,,,6h[1:1],2,{16}B2,B3,
B4,,,,,E3,{8}E4,,2,{16},,{256}3qq5b[2:3],6pp4[256:383],{16},,,{64},,,{128},{8}3/6,
E
