&title=『Ri Ka Miita』
&artist=kanase. ft. 可不
&first=-0.529
&des_1=职业选手吕郑豪DANK1NG
&des_2=职业选手吕郑豪DANK1NG
&des_3=职业选手吕郑豪DANK1NG
&des_4=职业选手吕郑豪DANK1NG
&des_5=职业选手吕郑豪DANK1NG
&lv_5=14
&des_6=职业选手吕郑豪DANK1NG
&des_7=职业选手吕郑豪DANK1NG
&des=职业选手吕郑豪DANK1NG
&inote_5=(200){4},,,,,,{2}Ch[1:2],
,,,,{1}7<8[4:13],
{32}E3,B3,{4},,,{16},,,{8}E7/B6,
,,B4/E5,,,{4}Ch[4:3],
{8},,,,,,,,7h[4:3]/E5,
E4,E3,E2,,,,,6h[4:3]/D5,
D4,D3,D2,{32},,,,,,,,,,,,,,,,E3/8<5p4>1[4:7],
B2,{16}B1,{1},,{4},{8},{2}1b,
{4}4h[4:1],{8}7,5,6,4>1[4:1],,1<6[4:1],
,6<4[4:2],,1>4[4:1],,5,,7,
{4}6/5-1[8:1],{8}6,7,,2/4<3[2:1],3/5,4/6h[8:3],
,,,,{4}4h[4:1],5,
5/6pp5[8:3],{8}6/4,3,,,2pp1[8:3],3,
2/4,,,6h[4:1],,8-4[8:1],5<3[8:3],8,
{4}5,4xh[2:1],{8},5,6,7,
{4}8-3[8:1],{8}8/1,2-5[8:1],,2/7p5[8:3],,7,
,,,,{4}2h[4:1],{8}B3,4h[4:1],
,B5,{4}6h[4:1],{8}B7,8h,8h,7/1,
{2}6-4[8:1]/2-4[8:1],{8}7h[8:1],{16}5,6,{8}4,5,
{16}3,4,{8}2,4/2h[4:1],{24}E1,E8,E7,{8}E6,3/4x,{16}B1,B2,E3,B3,
7bxh[8:1]/B4,,,8x/7bxh[8:1],,,{8}5x/7bxh[8:1],4x,3,{16}1x/2bxh[8:1],,,4x/2bxh[#0.1500015],
{8},5/2bxh[8:1],{16}6,5,{24}7,E7,B6,{16}B5,,,3h[16:3],,,{8}8,
{16}7bh[8:1]/5bh[8:1],,,4bh[8:1]/2bh[8:1],,,{8}8bh[8:1]/6bh[8:1],{16},3bh[8:1]/1bh[8:1],,,{8}8bqq5[4:3]/4bqq1[4:3],7/3,
{1}4b/8b,
{2}2h[2:15],{32}A6,E6,{4},,,{16},,,{32}E4,
B4,{4},,,{16},,,{32}A6,
E6,{4},,,{16},,,{32}E4,
B4,{4},,,{16},,,{32}A6,
E6,{4},,,{16},{32}E4,
B4,{1},{16},{32}A6,
E6,{4},,,{16},,,{32}E4,
B4,,,,,,,,,,,,,,,{2}3h[4:1]/A4,
3h[4:1]/A5,
4h[4:1]/A6,4h[4:1]/A7,
5h[4:1]/A8,5h[4:1]/A1,
6h[4:1]/A2,6h[4:1]/A3,
{4}5h[8:1]/7,5h[8:1]/7,4/6h[8:1],4/6h[8:1],
{8}5/3h[8:1],5,4h[8:1]/2,2,{16}2,4,3,5V71>4q5[16:25],4,6,{8}5/7xh[8:13],
{1},,{16}5/8h[4:1],
4,3,2,,,4/7h[4:1],3,2,1,,,3/6,2,1,8,
4,3,2,1,{4}8b/4h[8:3],{16},,6,5,7,8,6,1,
{8}5h[4:1],2,2,6/3h[4:1],7,7,3/8,7/4,
{16},5/6h[8:1],,,8/6h[8:1],,,2/5h[8:1],,,{8}3/4h[8:1],3,2,
{16}4/1h[4:1],5,6,7,,,5/2h[4:1],6,7,8,,,6/3,7,8,1,
5,6,7,8,{4}1b/5h[4:1],{16}3,4,2,6,5,7,1,8,
2x,1,3,8,{8}4h[8:1],{16}7x,8,6,1,{8}5h[8:1],4x,3/8,
{16}1/2h[8:1],,,4/2h[8:1],,,{8}8/2h[8:1],{16},6/2h[8:1],,,{8}3/7,4,
8/4,{16}7,5,{8}6,5/1,{16}2,4,{8}3,{16}7,8,{8}6,
{16}1-6[8:1],2,3,4,{4}5/1b,{16},,2,1,2,1,3,8,
{8}4h[4:1],8,7,4/6h[4:1],3,2,1-5[8:1],5-1[8:1],
1,6,7-3[8:1]b,3-7[8:1]b,7,2,1,8,
1/6,{16}3,4,{8}2,3/8,{16}6,5,{8}7,{16}2,1,{8}3,
{16}8-3[8:1],7,6,5,{4}4/8b,{16},,5,4,5,4,6,3,
7b,8,6,1,5,2,1b,2,8,3,7,4,6,5,7,4V68V24<5V71V35[4:5],
{1}8hb[2:3],
{2},,,,4x>3>2<1<8<7<6>5>4[4:29]`8x<8b[4:29],
,
,,
,,
,,
,,
{8},,,,,,,,,,,,{2},
,,
6h[4:1]/5h[4:1],6h[4:1]/5h[4:1],
5h[4:1]/4h[4:1],5h[4:1]/4h[4:1],
4h[4:1]/3h[4:1],4h[4:1]/3h[4:1],
4h[4:1]/2h[4:1],4h[4:1]/2h[4:1],
{4}1<7q3[2:1],4,5,6,
7>2p6[2:1]b,5,4,3,
{8}8/4h[8:1],8,3/7h[8:1],3,6/2h[8:1],6,1/5h[8:1],1,
{16}8,4,8,4,1,5,1,5,2,6,2,6,{32}2,3,4,5,6,7,8,1,
{4}2-6[8:1],{8}7/2,8z4[4:1],,8/4,{4}3-8b[8:1],
{2}A3f,5w1[8:1],
{4}7b-3[8:1],7/3,{8}2-5[8:1]b,6-1[8:1],2,6>3[8:1],
,6/8-4[8:1]b,,8>3[8:1],,6/8<5[8:1],7,8,
{4}2-5[8:1]b,{8}12,8,7-3[8:1],4,7/3,2,
{16}2h[8:1],,,3h[8:1]/1h[8:1],,,{8}6,6,5/7,8<7-4[8:1]b/4>3-8[8:1],7/3,
8b/4b`E8f/E4,,,6,2>5[8:1],1,2/5,6-1[8:1],
,6/4-8[8:1],,8/4,,2/5,3,7,
{4}8-4[8:1]b,{8}8/1,2-6[8:1],5,2/6,7,7h[8:1],
{16},8h[8:1]/6h[8:1],,,3h[8:1],,,4h[8:1]/2h[8:1],,,
6<1[8:1],,5,,26,3,4b-8[8:1]b,,,,{8}4/8,7,,3q7[8:1],2,1,,4q8[8:1],3,2,,5q1[8:1],4,3,,
6-3[8:1],7,63,2,1-5[8:1],4,
{8}15,,7b/B3f,,2b/E6f,,8b/Cf,{16},,7/3,6/2,
{4}5/1>6[2:1],{8}6,6,7,7,8,8,
8/1-6[8:1],1,7-3[8:1]b,7,4-8[8:1],4,5,5,36,36,27,27,{16}1,8,1,8,{24}E3,B3,B4,E7,B6,B5,
{1}E1hf[2:1]/E5h[2:1],
{8}
4-8[8:1],3,4/2-5[8:1],{16}1,7,2,,6-1[8:1],,7,,6,,{8}
5-1[8:1],8,5/7-4[8:1],{16}6,8,7,,3-8[8:1],,2,,3,,{8}
5>2[8:1],6,7,8<5[8:1],1,2,3>8[8:1],4,
5-1[8:1],,5/2-6[8:1],,8z4[8:1]/2,,84,,
1-6[8:1],8,1,4,5-8[8:1],7,5V31[4:1],,1V75[4:1],,5V31[4:1],,1s5[4:1],,5,,
8-3[8:1],1,8,5,4-8[8:1],2,14,,
{8},8/7,
6/1,2/5,1/2,3/8,7/4,1/8,
2/7h[4:1],3,4,5,6/2h[4:1],7,8,1,
8-4[8:1],7,6,5,5-1[8:1],4,3,2,
{16}8b/2h[8:1],7,6,5,{8}4,{16}1b/7h[8:1],2,3,4,{8}5,{24}7b,6,5,1,2,3,
{16}8h[8:1]/4h[8:1],,,7h[8:1]/5h[8:1],,,{8}6h[8:1],{16}5,4,3,2,8,7,6,5c
,
{4}4b<1[2:1]/1,{8}1,1,2,2,3,3,
{8}47,4,52,5,{16}4,6,3,5,1,8,2,7,
{1}1h[1:1],
{16}8,7,6,5,1,8,7,6,2,1,8,7,3,2,1,8-2V46V82[16:47],
{1}7bV13V57-1b[16:42]/3,
{2},,,,,B2h[8:8]/E3h[4:8],
{8}E5,E6,E7,E8,,,,,D5,
D6,D7,D8,{32},,,,,,,,,,,,,,,,B7/2,
B8`3,E1hf[16:31]`4>5b[16:27],
E
