&title=Triumphal Return
&artist=TamaDo
&first=0.017
&des=FIONAL/aiyommono33
&lv_4=13
&lv_5=14
&inote_2=
&inote_3=
&inote_4=(260)
{2},,
{8}7v5[4:13]/3v5[4:13],,,,,,,,
{4},,,,
{8},,,,,,,,
{4},,,,
{8}8-5[4:13]*z4[4:13],,,,,,,,
{8},,,,,,,,
{1},
{8},,,,,,C,,
{8}3h[8:1]/5h[8:1],,,3h[8:1]/5h[8:1],,,,4xh[8:1]/7xh[8:1],
{8},,4/7,,4/7,,,,
{8}1h[8:1]/6h[8:1],,,1h[8:1]/6h[8:1],,,,2xh[8:1]/8xh[8:1],
{8},,2/8,,2/8,,,,
{8}4h[8:1]/7h[8:1],,,4h[8:1]/7h[8:1],,,,5xh[8:1]/3xh[8:1],
{8},,5/3,,5/3,,,
{2}8xqq5[4:3]/1xpp4[4:3],,,
{8},3b/6b,,,,
{8}1-5[8:1],,1/8,,,7/4,,6p2[8:1],,5/6,,,,,7-3[8:1],,
{8}7/8,,,2/1,,3-8[8:1],,4/3,,,,,6x,5x,4,3,
{8}8-4[8:1],,1/8,,,2-6[8:1],,2/1,,,,,3/8,,7>2[8:1],,1x/7x,,,,,8,3x/8x,,
{8}1/6,,3/8,,
{16}7x,,8x,,1,,2,,
{8}8-4[8:1],,8/1,,,5/2,,3q7[8:1],,5/3,,,,,2-6[8:1],,
{8}2/1,,,5/7,,8-4[8:1],,8/1,,,,,3x,4x,5,6,
{8}4-8[8:1],,5/4,,,1x/7x,,3x/6x,,1/7,,,8x,2,6>3[8:1],,4x/6x,,,,,1,6/1,,
{8}7/2,,3/8,,1x,1x,8x,,
{8}2b/7b,3,6,,4,5,3,,2/7,,1,8,2,7,1,,
{8}3/5,4,6,,3,5,4,,5/7,,2/4,,
{16}8x,7x,6,,2,,,,
{8}1/6,2,7,,1,8,3,,2/5,,3,6,4,5,3,,2/7,1,8,2,6,3,5,4,3b/7b,,2b/6b,,
{16}B6,B7,B8,B1,,,,,
{8}3b/8b,4,7,,3,6,5,,7/2,,8,1,7,2,8,,
{8}6/4,3,5,,3,8,1,,6/2,,7/3,,
{16}4x,3x,2,,5,,,,
{8}2/7,1,8,,2,7,1,,3/6,,5,2,7,4,6,,7/2,8,3,7,2,5,4,6,7b/2b,,,6b/1b,,,8b/3b,,
{4}6x-3[8:1],,2,,1x-4[8:1],,8,,6x-1[8:1],,4,,
{8}2/5h[4:3],,,B1,,,B5,,4x/3x-7[8:1],,,,2,,,,1x/8x-4[8:1],,,,6,,,,2h[2:1]x/7x,,,,,,5,,5hx[2:1]/3x,,,,C,,,,
{8}2b/7b,,8,1,6,,,,3,5,4,6,2,,7,,3x/8x,,2,5,1,,,,3x,6,4,7,2,,1,,3x-6[8:1]/7x,,,,1,,,,7x-2[8:1]/3x,,,,6,,,,1xpp4[2:1]/8x,,,,,,,,5xpp8[2:1],,,,,,,,
{8}2x-6[8:1]/1x,,7,,8-4[8:1]/5,,1,,5-1[8:1]/2,,3,4x,,8,2,,
{8}1h[4:1]/7,,,6x-2[8:1]/4x-8[8:1],,,,,3-7[4:1]/5,,6,5x,,,2,1,
{8}8h[8:1],,,7x-3[4:1]/2x-6[4:1],,,,,5h[8:1],,,4x-8[4:1]/6x-2[4:1],,,,,
{8}3h[8:1],,,1x-5[4:1]/7x-3[4:1],,,,,4b/2b,,7b/5b,,
{16}E4,B4,B5,B6,,,,,
{8}1/7x^4[2:1],,,,4x^1[2:1],,,,1x^6[2:1],,,,2,,3-8[8:1]b,,3bx/4bx,,,6hx[8:1],,,3h[4:1]/8,,
{8}5b-1[8:1],,2,,,,7x,2,1x-5[8:1]/7x,,1,8,,,6,,4x-8[8:1]/2,,4,3,,,2,,5xpp8[2:1]/4xqq1[2:1],,,,,,,,2b/6b,,4b/8b,,
{16}B7,B8,B1,B2,,,,,
{16}2,,,,E8,B7,B6,E6,1,,1h[8:1],,,,
{8}3-8[8:1],,,5,,7/1,,5/3,,7^5[8:1],,7x,,3b,5b,,8h[4:1],,1,
{16}7x,,6x,,5,,,,2x,,3x,,
{16}7,,,,E2,B2,B3,E4,8,,8h[8:1],,,,
{8}4-7[8:1],,,1,,2/6,,3/8,,1pp5[4:1]b/6x,,,,,,,,2x,4,3,6,
{16}5,,7,,B1/B2,,,,
{8}8xp4[8:1],,8,2,,3,4,,7xp3[8:1],,7,2xq6[8:1],,7,8,,
{8}2x-6[8:1],,2,,5,,1,,2h[4:1]/8h[4:1],,,4h[4:1]/6h[4:1],,,4,5,
{8}6x-1[8:1]/3,,6,2-7[8:1],,2,5,,1-5[8:1],,8-4[8:1],,7-3[8:1],,6-4-2-8[2:1],,,,,,3x,,7x,,
{16}2,1,2,,8,,8,,
{8}B1/B2,B3/B4,B7/B8,B5/B6,2x-6[4:13],,,B8,,,,,,B3,,,,,,,B4,,,E4,,,,E3,,,,,2,,1,,4x-8[4:13],,,E6,,,,,E2,,,,E4,,,1xh[1:1],,,,,,,,,1,,1,,1,,B1,,
{8}8/2,,,,8/2,,,,3/5,,,5,3/5,,4/6,,1/7,,,,1/7,,,,2/4,,,2,2/4,,5/7,,1/2,,1/2,,3/4,,3/4,,5/6,,5/6,,7/8,,7/8,,1,1,2,2,3,3,4,4,Chf[1:1],,,,,,,,
{8},,6/4h[4:1],,,6/4,,2p6[8:1],,8/2,,,,,3-7[8:1],,
{8}3/4,,,6/5,,8-4[8:1],,1/8,,,,,2x,1x,8,7,
{8}3-7[8:1],,4/3,,,6-2[8:1],,5/6,,,,,7/4,,3<6[8:1],,5x/3x,,,,,4,7x/4x,,
{8}5/2,,7/4,,
{16}3x,,4x,,5,,6,,
{8}3-7[8:1],,5/3,,,2/1,,7q3[8:1],,8/7,,,,,6-2[8:1],,
{8}6/4,,,1/3,,4-8[8:1],,4/5,,,6,,7x,8x,1,2,
{8}8-4[8:1],,1/8,,,7x/3x,,,B1,B2,B3,B4,B5,B6,B7,B8,
{8}2-6[8:1],,8/2,,,5/4,,3p7[8:1],,4/3,,,,,5-1[8:1],,
{8}5/3,,,3/8,,2-6[8:1],,2/1,,,,,,5x,4x/6x,3x,
{8}8-4[8:1],,8/1,,,3-7[8:1],,3/4,,,,2/8,,6<1[8:1],,8x/6x,,,,,7,2x/7x,,,
{8}8/5,,2/7,,
{16}B6,B7,B8,B1,B2,,3,,
{8}7-4[8:1],,7/1,,,5/3,,2q6[8:1],,8/2,,,,,1-5[8:1],,
{8}1/7,,,4/8,,6-2[8:1],,6/4,,,,,,3x,2x/4x,5x,
{8}3-8[8:1],,4/3,,,2x/5x,6x,7/8,,3h[8:1]/4h[8:1],,3/4,,1x/2x,8x,4x,5q2-4[2:1]b/6p1-7[2:1]b,,,,,,,,
{16}5x,,4,,6,,3,,7,,2,,1/8,,,,
{16}3b/6b,,,,4,,,,5,,4,,3,,,,8,,,,3,,4,,7,,6,,5,,,,4,,,,6,,,,3,,4,,5,,,,7,,,,4,,6,,4,,3,,2,,,,1,,,,8,,,,B1,B2,E3,,6,,,,4,,,,7,,8,,B6,B5,E5,,3,,,,5,,,,2,,,,B8,B7,E7,,1,,,,4,,,,2,,7,,5x,4x,5x,,3bx,,1b/8b,,
&inote_5=(260)
{2},,
{8}4h[4:1],,5,4h[4:1]/5h[4:1],,,,4xh[4:1]/6xh[4:1],,,4/6,,3h[4:1],,5,,3h[4:1]/5h[4:1],
{8},,3/5,,2,,2xh[8:3]/4xh[8:3],,,,,4,4,5,5,6xh[4:1],,4,4h[4:1]/6h[4:1],,,,
{8}3xh[4:1]/7xh[4:1],,,3/7,,2h[4:1]/8h[4:1],,,1xh[8:9]/C,,,,,,,,,
{8}5,,5,,3x/5x,2,6/4x>5[2:1],7,8h[4:1],,,,,,,4xh[4:1],,3,3/4,,3xh[4:1]/5xh[4:1],,,,
{8}4h[8:3]/6h[8:3],,,,,3/7,,2xh[8:3]/8xh[8:3],,,,,1,8,7-5[8:1],,,,,
{8}4h[4:1]/6h[4:1],,,,2x-7[8:1],,6x-3[8:1],,1x-4[8:1],,5x-3-6-2-7-1[8:9]b,,E2/B1/B2f,,,,,,,,,
{8}2x,,,,
{16}8x,7x,6x,,3/5,,B2,,
{8}8/1-5[8:1],,,8,,7p3[8:1],7,1,,
{16}1x<2[16:5],8x<2[4:1],7x<2[16:3],6>2[8:1],,,,,
{8},8-4[8:1],,8,,,1-5[8:1],,1qq6[2:1],,,,,,,2,3,4,5,
{8}6-2[8:1],,1,1-5[8:1],,8<5[8:1],,2v5[8:1],,1-6[8:1],,,3-8[8:1],,4-7[8:1],,1x>7[2:1]b,,,,,8,8-3[8:1],,8x-5[8:1],,,,
{16}1,2,3,4,5,,7,,
{8}1/8-4[8:1],,,1,,2q6[8:1],2,8,,
{16}8x>7[16:5],1x>7[4:1],2x>7[16:3],3<7[8:1],,,,,
{8},1-5[8:1],,1,,,8-4[8:1],,8pp3[2:1],,,,,,,7,6,5,4,
{8}3-7[8:1],,8,8-4[8:1],,1>4[8:1],,7-4[8:1],,8-3[8:1],,,,5,6,7,8x<2[2:1]b,,,,Ch[4:1]f,,,,1,,1,,
{16}1x,2x,3x,4x,1/5,,,,
{16}8,7,6,5,4,,2x,1,8,7,6,,4,5,6,,2,,,,8,7,6,,1x,2,3,4,5,,,,8,1,2,3,4,,2x,3,4,5,6,,8,7,6,,1,,7,,1,,8,,2,3,4,,6,,7,,
{16}1,2,3,4,5,,7x,8,1,2,3,,5,4,3,,7,,,,1,2,3,,8x,7,6,5,4,,,,1,8,7,6,5,,7x,6,5,4,3,,1,2,3,,5x/7x,,,,4x/2x,,,,4,5,6,7,8x/4x,,,,
{16}8,7,6,5,4,,2x,3,4,5,6,,8,7,6,,1,,,,7,6,5,,1x,8,7,6,5,,,,7,6,5,4,3,,1x,2,3,4,5,,8,7,6,,1,,7,,1,,8,,2,3,4,,6,,2,,
{16}7,6,5,4,3,,1x,2,3,4,5,,8,7,6,5,1,2,3,4,7,6,5,4,2,3,4,5,8,7,6,5,1x,8,7,6,5,4,3,2,1,
{16}8,7,6,5,4,3,2,8xb/1b,,1x-5[8:1]b/8x-4[8:1]b,,,,1x/8x,,,,,,3/6,,2/7,,
{8}1b/8b,,,,B2,,,,5/7,,,,B6,,4,,1/3,,,,B8,,,,7h[4:3],,,B6,,,C,,4-8[4:1],,,,2,,,,8>3[4:1],,,,6,,,,3-7[4:1],,,,,,4,,4xh[2:1],,,,,,,,
{8}3x/6x,,5,3,8,,2-6[4:1],5,6V84[4:1],,4x>1[4:1]*<7[4:1],4,,,,,1x/7x,,2,8,3,,5-1[4:1],,1-7[8:1],,2-5[8:1]*-6[8:1],,,,,,7<6-3[8:1],,,,1,,,,4>3-8[8:1],,,,6,,,,5bw1[4:1],,,,,,,,8bw4[4:1]b,,,,
{8},,,,2x/6x,,1<6[4:1],1,6-2[4:1],,,,5>1[4:1],,
{8}1<5[4:1],,5-1[4:1],,1,,3-8[8:1],,,5,6<8[8:1],,
{16}1w5[8:1],2,3,,1bx,,,,,,,,,,,,
{8}3-8[8:1],5,4x-7[8:1],,4,1-4[8:1],,1,5-8[8:1],,3>8[8:1],,3x,7,,,
{8}1-5[8:1]b/8-6[8:1]b,,1x/8x,,,4-1[8:1]/8,,7,6<1[8:1],,
{24}1x/6x,2,3,4,,,
{8}2x<7[8:1],2x,
{16}6,5,4,3,,,
{8},2xv5[8:1],5V31[8:1],7-3[8:1],,7x,,8>4[4:1],,4x<8[4:1],,8>4[4:1],,4,,
{8}6-1[8:1]b,,2x-4[8:1]/6x,,2,5<7[8:1],,1,1>4[8:1],,
{24}1x/8x,7x,6,
{16}5h[2:1],,,,,,,,,,
{8}5-8[8:1],3,5x,,2-5[8:1],2,,7-4[8:1],7,,
{8}1b-5[8:1],,1/8,,,2/7,1>4[8:1]/8<5[8:1],,
{16}1b/8b,,,,,,
{8},,2/7,2/7,,
{16}1/7h[16:1],2x,3x,,8,7x,6x,,
{24}2x/8x,3x/7x,4x/6x,
{8}5,B5,C,
{16}B1f,,,,8-4[8:1],,4-8[8:1],,8-6[8:1],,,,,,3-8[8:1],,,,3x/4x,,,,,,1/6,,7,,3/8,,2,,1-5[8:1]b/7,,,,1x/2x,,,,4x/6,,4x/7,,,,1-4[8:1],,4-1[8:1],,1-6[8:1],,6-1[8:1],,6-4[8:1],,,,,,,,,,C,,,,1-5[8:1],,5-1[8:1],,1-3[8:1],,,,,,7-4[8:1],,,,7x/8x,,,,,,1q6[8:1],,,,7pp5[4:1]b,,,,Cf,,,,,,,,3,,4,,6,,7,,2x,1,2,,8x,1,8,,2,3,4,5,8,7,6,,2x-5[8:1],,,,2,,6-1[8:1],,,,6,,4-1[8:1],,,,4,,,,8v5[8:1]/8v3[8:1],,8,,,,,,2/6,,,,4-2[8:1]/8-6[8:1],,,,4x/8x,,,,1q5[8:1]/5q1[8:1],,,,1<6[8:1]b/5>2[8:1]b,,,,D8f/D4f,,,,,,
{24}6bx/2bx,7/3,8/4,1/5,,,
{16},,7,,6,,
{8}1-3[4:1],,3p6[4:1],,6-1[4:1],,1-4[4:1],,4q1[4:1],,1-4[4:1],,4-7[4:1],,7q4[4:1],,4<7[4:1],,7>2[4:1],,5-8[4:1],,,,
{16}4,,4x,3,2,,8x,7,6,,3,,4,,5,,
{8}6xv4[1:3]/2xv4[1:3],,,,,,,,,,,,,,,,,,,,,,,,,,,,E3,B2,B1,E1,8x-5[1:3]*z4[1:3],,,,,,,,,,,,,,,,,,,,,,,,,,,,B3,B4,B5,B6,5/7,,,,5/7,,,,7/1,,,1,7/1,,3,,2/4,,,,2/4,,,,4/6,,,6,4/6,,8,,1/3,,2/4,,3/5,,4/6,,8/2,,7/1,,6/8,,5/7,,4,4,4,4,8,8,8,8,
{16}1x,2,3,4,5,6,7,8,
{16}1/5,4,3,2,1hx[32:1],8hx[32:1],7hx[32:1],6hx[32:1],
{8}Cf,,5h[8:1]b,,,2q6[8:1],2,8,,
{16}8x>7[16:5],1x>7[4:1],2x>7[16:3],3<7[8:1],,,,,
{8},1-5[8:1],,1,,,8-4[8:1],,8,,
{16}1,2,3,4,5,6,7,8,1,2,7x/3x,,6,,5,,4,,
{8}3-7[8:1],,8,8-4[8:1],,1>4[8:1],,7v4[8:1],,8-3[8:1],,,6-1[8:1],,5-2[8:1],,8x<2[2:1]b,,,,,1,1-6[8:1],,1x-4[8:1],,,,
{16}8,7,6,5,4,,2,,
{8}8/1-5[8:1],,,8,,7p3[8:1],7,1,,
{16}1x<2[16:5],8x<2[4:1],7x<2[16:3],6>2[8:1],,,,,
{8},8-4[8:1],,8,,,1-5[8:1],,1,,
{16}8,7,6,5,4,3,2,1,8,7,2x/6x,,3,,4,,5,,
{8}6-2[8:1],,1,1-5[8:1],,8,,,
{16}1x,8,1,8,1,8,1,8,1,,8x,,8xw4[8:1],,,,
{8}8b,,3-7[8:1],3,,6-1[8:1],6,,2-6[8:1],,7-4[8:1],,3<1[4:1],,,,
{32},2x,3x,4x,
{8}5xh[8:1],,6-2[8:1],,4>1[8:1],4,
{32}1,8,7,6,5xh[4:1],,,,,,,,
{8}8,,1x/7x,2/6,3/5,4,
{8}Cf/8,,8x-4[8:1],8,,3-8[8:1],3,,7-3[8:1],,2-5[8:1],,6>3[4:1],,3x>8[4:1]b,2bx,,
{8},4-8[8:1],,,5<8[8:1],5,
{32}8,1,2,3,4xh[4:1],,,,,,,,
{8}1,,2x-6[8:1],2x,7x-4[8:1],7x,2b>5[8:1],,8-4[8:1],8,,3-8[8:1],3,,5-1[8:1],,1,,
{24}2/8,3x/7x,4x/6x,5x,,,
{8}2bv5[8:1]/8bv5[8:1],,2x/8x,,,4,,7<4[8:1],7,
{24}3,2,1,8x-5[8:1],,,
{8},8,,,6,7x-4[8:1]/8x-4[8:1],1,7xb/8xb,,
{8}2>5[8:1],2,,8-4[8:1],8,3-8[8:1],,5-1[8:1],,,,2x,1x,8x,
{8}7bw3[8:1]b,,,,Ch[4:1],,,,
{8}1,
{16}1b,8,7,6,5,4,
{8}3x/7x,2/6,1/5,4/8,3bx<7[4:14]b/7bx>3[4:14],,,,,,,,,,,,,,,,,,,,,,,,,,,,,,,,5,4,6,3,7,2,8,1,6,5,7,4,
{16}8,7,6,,
{8}2,5,1,8,2,7,3,6,4,5,2,1,3,8,
{16}5b/7b,A4,A3,A2,
{8}1xv3[8:1]b/5xv7[8:1]b,
