&title=Cyclone♠Joker
&artist=庭師
&first=1.78
&des=卡面来打!
&lv_5=14
&inote_5=(149)
{4}1b,
{8}7h[4:1],,1h,6,3,4,1h,,6h[4:1],,1h,4,3,6,1h,,8h[4:1],,1h,6,2,4,
{16}1h,5,5-8[8:1],,3,,,,2b,,,,,,,,
{16}1,8,2pp3[16:3],,4>7[4:1],,,8,,,6,,5,,4,,
5,1,7qq6[16:3],,5<2[4:1],,,1,,,3,,4,,5,,
4,8,2pp3[16:3],,4>7[4:1],,,8,,,6,,5,,4,,
5,1,7,,3,,3,,7,3,6,4,6,2,5,3,
4b-7[8:1],,,,7bV15[4:1],,,1b,,,2,,3,,4,,
2b-5[8:1],,5bV38[4:1],,6b,,,6b,,,7,,6,,5,,
7b-4[8:1],,4bV61[4:1],,3b,,,3b,,,3,,28,,17,,
8bv2[16:1],,,7b-5[16:1],,,1bv3[16:1],,,
8b-6[16:1],,,2bv4[16:1],,,1b-7[16:1],,,
3bv5[16:1],,,2b-8[16:1],,,,4q5[16:3],,,,,,,7v8[8:1],,4,,,,,,2-5[8:1],,5-2[8:1],,,,,
8b,,7b,,,1/6,,2,
,4,3,5,4,7,5,6,4,5s1[4:1],,3,,,,,,2v3[8:1],,3-5[8:1],8,,8,,,
8,7,6,5,1,2,3,4,1-5[8:1],2,8,3,1b,,,,3-7[8:1]/7-3[8:1],,,,,,,,
{24}2V41[4:1],6-4[16:1],2,6,,,,,,
{16},7,,7,,,2-6[8:1],1,3,8,2-8[8:1]*-5[8:1],,,,2,,,,
{24}7,4z8[24:5],,
{16},,,,,,6,,,
7b/4,,2b/5,,8b,
1,7,2,6,1,7,3,5,2,2,6,6,8,8,4,4,
{24}1b,25,36,4/7h[36:8],5,,,,
{36},
{24}4,36,25,1,8,7,6,5,4,3,2,1,
{36},,,6,,
{16},6,1,4,3,7,4,6,5,8,
{24}4,3,2,6,7,8,4,3h[8:1],,,,,,
{16}8,2,7,3,6,4,6,2,6,4,6,2,6,5h[8:1],,7,1h[8:1],,4,3,
{36}7,,,
{16}4b,
{18},,
{16}6b-8[16:1],,,4b-2[16:1],,,5bw1[16:1],,,5b,,,,,
{18},,,
{36},
{16}2,2,4,3,5,4,7,7,5,6,4,5,1,1,4,2,5,3,8,8,4,7,3,6,2,5,1,7,3,8,4,
5b,2,7b,3,4b<4[2:3],,,,,,,,,,,,,,,,,,,,5<8[4:1],,,,,,,,,
{18},,,,
{36},
{1}2pp5[4:7],,
{8}8V24[1:1],,7,,6,,5pp4[4:3],,,,,,,,2h[36:1],,3b,
{8}7h[16:1],7,6h[16:1],6,5h[16:1],5,3h[16:1],3,2h[16:1],2,1h[16:1],1,8h[16:1],8,
{16}7h[16:1],,5,,5,6,,4,5,3,4,,5,3,,4,6,5,7,4,7,4,6,3,6,3,5,2,5,2,4,1,4,1,
{32}5,6,7,8,1,2,3,4,5-8[8:2]*-8[8:2],6,7,8,1,2,3,4,
{4},,
{8}3-7[8:1]/7b,3b/7V14[4:1],,,5,6,7,2,
6-2[8:1]/2b,6b/2V85[4:1],,,4,3,2,7,
7b/4<7[8:1],7V15[4:1]/4b,,,6,6,4,4,
2b/5>2[8:1],2V84[4:1]/5b,,,3,2,
{16}5,3,7,,
{8}28,34,17,56,28,46,17,35,
{16}2,8,3,4,1,7,5,6,2p6[8:1],8,4,6,2b,,,,3,5,2,6,4,6,3,7,3,5,2,6,4,6,3,7,
2b>1[2:2],3b<1[16:15],,,,,,,,,,,,,,,,,,,,,,,,,,,
{16}1>4[8:1],7,8,,16,,,7,2>5[8:1],8,1,,27,,,8,3<6[8:1],1,2,,
3p7[8:1]/8,,7V15[4:1],,3,,5,,6h[4:1],,,,
4>1[8:1],6,5,,47,,,6,3,5,4,,36,25,,1b,,7b/8,,
{48}7b/8b,16,25,
{16}3h[4:1]/4,,,,4-8[8:1],3,6-4[8:1],,4,,6,,1pp5[4:1],7,,,1/6b-1[8:1],,,,,,,,
5,,3,,8p4[8:1],2,,,8/3b-8[8:1],,,,3b,,,4b<7[8:1],,,,,3b,,,1b,,,2,1,3,8,4,7,5-1[8:1],,7,7b,,6,,2b,2,4,4,3,3,6,6,5,
{24}8,7,6,4,3,2,8,7,6,3,2,1,
{16}5-8[8:1],,,,5,,1,,2<8[8:1]/7<4[8:1],,,,2,,,,
1,,5,,4-7[8:1]/8-3[8:1],,,,4b>1[8:1],,,,8,7,6,5,
4h[8:1],,3,4,1h[8:1],,5,3,8h[8:1],,2,8,3,7,4,4,
{24}6b,,2b,,5b,,15,26,37,4,5,6>1[8:1],,,,,,67,,,,
{16}7b,8,
{16},,,,7,1,7,5,6,8,6,4,5,5,3,3,4,2,8,1,5,2,7,1,6b,8b,,5h[8:1],,,,
{24}8b,15,26,37,84,5,6,7,8,1,2,3b,4,5,6,7,
{16}8b-3[16:1],,,4b-7[16:1],,,1b-4[16:1],,,5b-8[16:1],,,2b-5[16:1],,,6b-1[16:1],,,3b-6[16:1],,,7b-2[2:3]*-2[2:3],,,,,,,,,,,,,,,,,,,,,,,,,
{48},
{16}3!-6[8:1],,,,3b,,,,
{16}8,1,7qq6[16:3],,5<2[4:1],,,1,,,3,,4,,5,,
4,8,2pp3[16:3],,4>7[4:1],,,8,,,6,,5,,4,,
5,1,7qq6[16:3],,5<2[4:1],,,1,,,3,,4,,5,,
4,8,2,,6,,6,,2,6,3,5,3,7,4,6,
5b-2[8:1],,,,2bV84[4:1],,,8b,,,7,,6,,5,,
7b-4[8:1],,4bV61[4:1],,3b,,,3b,,,2,,3,,4,,
2b-5[8:1],,5bV38[4:1],,6b,,,6b,,,6,,71,,82,,
1bv7[16:1],,,2b-4[16:1],,,8bv6[16:1],,,
1b-3[16:1],,,7bv5[16:1],,,8b-2[16:1],,,
6bv4[16:1],,,7b-1[16:1],,,7bw3[2:1],
