&title=Apocalypse ~dirge of swans~
&artist=Zektbach
&first=0
&des=NekoMuseigen
&lv_5=13+
&inote_5=(170)
{1},,
{8}
6,5,4,3,5,,,,4,5,6,5,3,,,,
2,3,4,3,1,,,,8,7,6,5,7,,,
{16}6<5[8:25],6,
{4}
6h[8:32],,,,,,,,
,,,,,,,,
{8}
1<6[8:3],,,,1,,2,,4/3h[8:2],,6,,5h[8:4]/4,3,,,
8>4[16:7],,,,7,,6,,4/5h[8:2],,2,,3h[8:4]/4,5,,,
6pp6[8:4],,,,2,,3,,4h[8:2]/5,,7,5-8[8:1],,4h[8:3],,,
5qq2[8:4],,6,,,,8h[8:2],,4pp8[8:4],,3,,2,1,,,
81,,8-5[8:2]/1-4[8:2],,,,,,1h[8:2],,6,5,7,6,8,7,
45,,4pp6[8:2]/5qq3[8:2],,,,,,7h[8:2],,3,4,2,3,1,2,
37,,3<6[8:2]/7p2[8:2],,,,,,7h[8:2],,8qq8[16:5],1,,,3,,
{16}4,5,4,5,4,5,4,5,2,7,2,7,2,7,2,7,4,5,4,5,2,7,2,7,4,5,2,7,4-8[8:1],5,2,7,
{8}
4b>1[8:1],,7-3[8:1],,8/7<4[8:1],,1-6[8:1],,2/1V35[16:3],,5,,8-4[8:1],7,86,,
5-8[8:1]/3,,2-6[8:1],,1/2>5[8:1],,8-3[8:1],,7/8qq8[16:4],,4,,3<6[8:1],2,3/1pp5[8:3],,
7,,8<6[8:1],,8>2[8:1],4,8-6[8:1],,8-2[8:1],3,8<5[8:1],5,8>3[8:1],4,4h[8:2],,
5h[8:2],,1>4[8:1],5,1<6[8:1],6,1s5[8:2],,8h[8:4],,,,1,27,3/6pp2[8:3],,
2,,,,5>2[8:1],,5V71[16:3]/7,,
5/4,,3,2h[8:1],5<8[8:1],2,35,,
6h[8:2]/4>1[8:1],,4,6,5/4<7[8:1],,4V28[16:3]/3,,
45,,6,7h[8:1],4>1[8:1],7,6-2[8:1]/4,,2/6bq5[8:3],,,,,,,,
1/7h[8:2],,3,4,2h[8:2]/8,,6,5,
{16}3b,4,2,4,2,4,2,4,3b,4,2,4,2,4,2,4,
3b,4,2,4,3b,4,2,4,1-5[8:1],5,1,5,1,,,,
{8}6bv5[8:1],5b<8[8:1],,,4b>1[8:1],1b-4[8:1],,,8b-5[8:1],5bp8[8:1],,,3bV15[8:1]*v5[16:2],5b,,,8bs4[32:5],4b,,,3b-8[8:1],5b-8[8:1],,,4bs8[8:1],8b,,,6bV85[8:1],4bV25[8:1],,,7b>5[8:12],,,,3h[8:12],,,,,,,,,,,,6b<4[8:12],,,,,,,,,,,,,,,,
{16}6b-1[8:1]/4b,,,,,,,,,,,,,,3,5,2b-5[8:1]/4b,,,,8b-3[8:1],,,,,,,,,,,,4b-7[8:1]/2b,,,,,,,,,,
,,,,7,4,8b-4[8:1]/5b,,,,1h[8:2],,,,{12}5,5,5,5-1[8:1],5,5,{16}
5b,,,,4,,3,,2,1,2,,3,,4,,
5/6h[8:2],,,,4,,3,,4,5,4,,3,,2,,
6h[8:2]/1,,,,3,,2,,1,7,1,,2,,3,,
4/6h[8:2],,,,3,,2,,3,4,3,,2,,1,,
7h[8:3]/3,,,,4,,5,,6,5,6,,54,,5,,
3/7h[8:3],,,,2,,1,,3,4,3,,25,,2,,
7h[8:3]/3,,,,4,,5,,6,5,6,,84,,8,,
5/7h[8:3],,,,6,,5,,4/7p3[16:3],,3,,2,,1,,
{4}8b-5[8:8],,,,1-4[8:8],,,,8-5[8:8],,,,1pp1[8:10],,,,
8h[4:8],,,,,,,,4<4[8:5],,,,{24}5,6,7,8,1,2,3q5[16:5],4,5,6,7,8,,,,,,,,,,,,,
{16}
6,5,6,,6,5,6,,3,4,3,,6,5,6,,
3,4,2,,2,4,3,,6,5,7,,3,4,2,,
6,5,7,,7,5,6,,3,4,2,,6,5,7,,
3,4,2,4,3,4,2,2,6,5,7,5,6,5,7,,
2,1,2,,7,8,7,,2,1,3,,7,8,6,,
2,4,2,,7,5,7,,3,1,3,,6,8,6,,
3,4,2,6,5,7,7,,6,5,7,3,4,2,2,,
3,4,2,6,5,7,2,1,3,7,8,6,1-5[8:1],5,3,7,
{8}
1b,8,7h[8:2],5,4h[8:3],7,6,5,
7h[8:4]/4b,3,2,1,3h[8:2],1,7h[8:1],1,
7b-4[8:1],8,1,2,3-8[8:1],4,5,6,
7b,5,4,2,3h[8:2]/6,8,5h[8:1],8,
3h[8:2]/5b,6,7h[8:2],1,2h[8:1],4h[8:1],6h[8:1],8h[8:1],
{16}2,1,3,1,4,1,5,1,5,6,5,7,5-1[8:1],8,5,1,
{4}5bqq8[4:12],,8h[16:6],,7h[16:6],,6h[16:6],,5h[8:23],,,,,,,1h[8:9],,
