&title=Cherry Pop
&wholebpm=192
&artist=DECO*27
&des=Radustiny
&first=0.3899999
&lv_5=13.8
&des_5=Radustiny
&inote_5=
(192){4}B7,B7,B7,7xh[4:1],
8x-2[8:1],8,{8}6,5,6,5,
{4}7-1[8:1],7,{8}3,4,3,4,
{4}2-8[8:1],2,{8}6,5,6,5,
7h[8:1],8h[8:1],6h[8:1],5h[8:1],8h[8:1],1h[8:1],5h[8:1],4h[8:1],
{4}1-3[8:1],8,{8}7,5,7,5,
{4}8-6[8:1],1,{8}2,4,2,4,
{4}1-3[8:1],8,{8}7,5,7,5,
8h[8:1],1h[8:1],5h[8:1],4h[8:1],1xh[8:1],2xh[8:1],4xh[8:1],3xh[8:1],
{4}Ch[4:11],1h[4:1],,2h[4:1],
,3h[8:1],{8},4,3,2,
{4}1,{8}B2,B3,{4}B4,{8}E5,B2/E3/B3,
,B7/E7/B6,,B2/E3/B3,,6x,6x,5x,
{4}4x-6<7[2:1],3,2,{8}1,1,
8-2>4[2:1],7,6,6,,6,7,8,
{4}1-7<5[2:1],{8}4,3,{4}2,{8}2,2v4[8:1],
,2/8v6[8:1],,8,,4,3/5,6/2,
1x/7x<4[8:1],8,1,2>5[8:1],1,8,7,6h[4:1],
,5,{4}6v1[8:1],6,{8}4,3,
5h[4:1],3,2h[4:1],4,5h[4:1],3,2h[4:1],1,
,7x<6-8-5-1[2:1],,2x,3x,2x,{4}3x,
8x/2x>5[8:1],{8}2/8,7<4[8:1],,1,2,3h[4:1],
,4,{4}3v8[8:1],{8}3,5,5,6,
4h[4:1],6,7h[4:1],5,4h[4:1],6,7h[4:1],8,
,2x>3-1-4-8[2:1],,7x,6x,7x,{4}6x,
8x/1x>4[2:1],7,6,5,
4/5<8[2:1],3,2,1,
8/1-5[2:1],8,7,{8}6>6[4:3],6,
,,,,4,4,3,2,
1x/6x,1x,6x/1,{16}7x,8x,{8}7x,1x,5/2,{16}3x,4x,
{8}3x,{16}6x,5x,{8}7x,7x,7x,8x/5x,7x/4x,3x/6x,
2x/5x,{16}3,4,{8}3h[8:1],1-5[8:1],2x-4[8:1],1x-7[8:1],2x,1x,
4x,{16}6,5,{8}6h[8:1],8-4[8:1],7x-5[8:1],8x-2[8:1],7x,8x,
5x,4,3,2,1x,8,7,6,
3-1[8:1],4-8[8:1],3,4,2bx-4b[8:1],1bx-5b[8:1],2bx,1bx,
2x,{16}3,4,{8}3h[8:1],1v6[8:1],2x>4[8:1],1x<7[8:1],2x,1x,
4x,{16}6,5,{8}6h[8:1],8v3[8:1],7x<5[8:1],8x>2[8:1],7x,8x,
5x,4,3,2,1x,8,7,6,
5-7[8:1],4-8[8:1],5,4,7bx-5b[8:1],8bx-4b[8:1],7bx,8bx,
5x,{16}3,4,{8}2-8-4[4:1],8,{4}1x-5-7[4:1],1x,
{8}4x,{16}6,5,{8}7-1-5[4:1],1,{4}8x-4-2[4:1],8x,
{8}5xh[8:1],4h[8:1],3h[8:1],2h[8:1],1xh[8:1],8h[8:1],7h[8:1],6h[8:1],
5-8[8:1],1-4[8:1],5,1,7b-2b[8:1],3b-6b[8:1],7b,3b,
8x,{16}7,5,{8}7p3<5[4:1],1,{4}8x<6q2[4:1],8x,
{8}5x,{16}3,4,{8}2q6>4[4:1],8,{4}1x>3p7[4:1],1x,
{8}4xh[8:1],5h[8:1],6h[8:1],7h[8:1],8xh[8:1],1h[8:1],2h[8:1],3h[8:1],
4>1[8:1],8<5[8:1],4,8,2b<7b[8:1],6b>3b[8:1],2b,6b,
,,{4}B7,B7,7xh[4:1],
8xv5[8:1],8,{8}6,5,7,8,
{4}6v1[8:1],6,{8}3,4,2,1,
{4}3v8[8:1],3,{8}5,8,5,8,
6,6h[4:1],7,7h[4:1],8,8h[4:1],1,1,
{4}1xv4[8:1],1,{8}3,4,2,1,
{4}3v8[8:1],3,{8}6,5,7,8,
{4}6v1[8:1],6,{8}4,1,4,1,
3,3h[4:1],2,2h[4:1],1,1h[4:1],8,8,
{4}6>3-8>3[4:3],6h[4:1],{8},7,,6,
6,6,7,8<6v1[8:3],,2,3,4,
5-3>1v4[2:1],,,6,,6,7,8/B2/E3/B3,
,B7/E7/B6,,B2/E3/B3,,6x,5x,4x,
{4}3<6-1<6[4:3],3h[4:1],{8},2,,3,
,3,2,1>3v8[8:3],,7,6,5,
4-6<8v5[2:1],,,3,,3,2,2v3[8:1],
,2/7v6[8:1],,7,,4,4/5,6/3,
{4}7x-3[8:1]/2x-6[8:1],C,1-5[8:1],{8}7,6h[4:1],
,5,{4}6v1[8:1],{8}6,4,4,3,
4h[4:1],1,3h[4:1],1,4h[4:1],1,3h[4:1],1,
,6>5-7-4-8[2:1],,2x,3x,2x,{4}3x,
{8}2x>5[8:1],1,8,7<4[8:1],8,1,2,3h[4:1],
,4,{4}3v8[8:1],3,{8}5,6,
5h[4:1],8,6h[4:1],8,5h[4:1],8,6h[4:1],8,
,3<4-2-5-1[2:1],,7x,6x,7x,{4}6x,
8bx/1bx>4-8[4:3],7,6,5,
4-8<5[4:3],3,2,1,
1bx-5>2[4:3],8,7,{8}6-2<7[4:3],6,
,4,4v2-5[2:1],4,,,,7bx,
{4}7bx>2v5[4:3],6,5,4,
3bx<6v1[4:3],2,1,8,
7bxv4[4:1],1,2bxv5[4:1],8,
7bx-4[8:1],7bx/2bx-5[8:1],2bx/8bx-4[8:1],8bx/1bx-5[8:1],
{8}1bx/8,7,,6,6,7,8,{32}1x,2x,3x,4x,
5x,6x,7x,8x,1x,2x,3x,4x,5x,6x,7x,8x,{8}1xw5[1.25##0.1562],,,,,,,,B1,
,,,6b,
{16},,6,5,{8}7,7,7,8/5,7/4,3/6,
2/5,{16}3,4,{8}2-8-4[4:1],8,{4}1x-5-7[4:1],1x,
{8}4x,{16}6,5,{8}7-1-5[4:1],1,{4}8x-4-2[4:1],8x,
{8}5x-8[8:1],4,3,2,1x-4[8:1],8,7,6,
5-1[8:1],3-7[8:1],5,3,8b-4b[8:1],2b-6b[8:1],8b,2b,
7x,{16}7,5,{8}7p3<5[4:1],1,{4}8x<6q2[4:1],8x,
{8}5x,{16}3,4,{8}2q6>4[4:1],8,{4}1x>3p7[4:1],1x,
{8}4x>1[8:1],5,6,7,8x<5[8:1],1,2,3,
4q8[8:1],6<1[8:1],4,6,2bp6b[8:1],8b<5b[8:1],2b,8b,
2x,{16}3,4,{8}3qq4[4:1],5,{4}C/6pp5[4:1],C,
{8}4,{16}6,5,{8}6pp5[4:1],4,{4}C/3qq4[4:1],C,
{8}7xh[8:1],6h[8:1],5,4,2xh[8:1],3h[8:1],4pp4[4:1],5,
{4}4qq4[4:1],8pp8b[4:1],8bxqq8b[4:1],4bx,
{8}2x,{16}3,4,{8}3v2>4[4:1],5,{4}C/6v7<5[4:1],C,
{8}4,{16}6,5,{8}6v7<5[4:1],4,{4}C/3v2>4[4:1],C,
{8}6xh[8:1],7h[8:1],8,1,3xh[8:1],2h[8:1],1pp1[4:1],8,
{4}1qq1[4:1],5pp5b[4:1],5bxqq5b[4:1],1bx,
,B7,B7,7xh[4:1],
8x-4[8:1],8,{8}7-5[8:1],5-1[8:1],4,3,
{4}2-4[8:1],2,{8}6-4[8:1],4-8[8:1],3,2,
{4}1-5[8:1],1,{8}6-8[8:1],5-1[8:1],6,5,
7-5[8:1],7,8-4[8:1],8,1-5[8:1],1,2-4[8:1],2,
{4}8-4[8:1],8,{8}2-4[8:1],4-8[8:1],5,6,
{4}7-5[8:1],7,{8}3-5[8:1],5-1[8:1],6,7,
{4}8-4[8:1],8,{8}3-1[8:1],4-8[8:1],3,4,
2-4[8:1],2,1-5[8:1],1,8-4[8:1],8,7-5[8:1],7,
{4}B2,B2,B2,1x-7-1-7-1-7-1-7-1-3[4:9],
{1}C,
E
