&title=猛独が襲う
&artist=一二三 (MyGO!!!!! Cover)
&first=-0.1
&des=野狗复活计划
&lv_5=13
&inote_5=(78){4},{16}4h[4:1],,,5,,,{8}5,{16}3h[8:1],5h[8:1],,,{8}4/5h[16:1],
3,{16}5h[4:1],,,4,,,{8}4,{16}6h[8:1],4h[8:1],,,{8}5/4h[16:1],
6,{16}3h[4:1],,,4,,,{8}4,{16}2h[8:1],4h[8:1],,,{8}3/4h[16:1],
2,3h[8:1],{16}5,4/6,7/3,2/8,1/7,4/6,{32}4,5,4,5,3,6,4,5,
4x,5x,3x,6x,{8}2bx,{16}5-1[12:1],4,6,4,{8}5,4h[8:1],{16}5<8[8:1],4,6,3,
2x,2,{8}2,{16}5h[16:1],3h[16:1],6h[16:1],4h[16:1],{8}7h[8:1],1h[8:1],{16}8-4[16:1],1-5[16:1],7,2,
8,1,{8}1xh[8:1],{16}4-8[12:1],5,3,5,{8}4,5h[8:1],{16}4>1[8:1],5,3,6,
7x,7,{8}7,{16}4h[16:1],6h[16:1],3h[16:1],5h[16:1],{8}2h[8:1],8h[8:1],{16}1-5[16:1],8-4[16:1],2,7,
1,8,{8}8xh[8:1],{16}5,5,5,5,5x,5,5,5,3,3,3,3,
3x,3,3,3,5/4-2[8:1],5,5,5,5x,5,5,5,7/1-3[8:1],7,7,7,
7x,7,7,7,4/5-7[8:1],4,4,4,4x,4,4,4,3/8-6[8:1],3,3,3,
3x,3,3,3,4/7-5[8:1],4,4,4,4x,4,4,4,2x,2,2x,2,
1x/8x,1x/8x,1x/8x,1x/8x,3-7[12:1],4,2,4,{8}3,4h[8:1],{16}3>8[8:1],4,2,5,
6x,6,{8}6,{16}3h[16:1],5h[16:1],2h[16:1],4h[16:1],{8}1h[8:1],7h[8:1],{16}8-4[16:1],7-3[16:1],1,6,
8,7,{8}8xh[8:1],{16}6-2[12:1],5,7,5,{8}6,5h[8:1],{16}6<1[8:1],5,7,4,
3x,3,{8}3,{16}6h[16:1],4h[16:1],7h[16:1],5h[16:1],{8}8h[8:1],2h[8:1],{16}1-5[16:1],2-6[16:1],8,3,
1,2,{8}1xh[8:1],{16}6x,6,6,6,1x,1,1,1,5x,5,5,5,
8x,8,8,8,4,4,4,4,4x,4,4,4,6/5-3[8:1],6,6,6,
6x,6,6,6,4/5-7[8:1],4,4,4,4x,4,4,4,3/8-6[8:1],3,3,3,
3x,3,3,3,4/7-5[8:1],4,4,4,4x,4,4,4x/5x,{8}5b/4b,3b/2b,
{4}8b/7b,{16}1-4[16:1],8,2,7,1,6,2,5,3V14[8:1],6,4,5,
3,7,7,3,8-5[16:1],1,7,2,8,3h[8:1],{8}7,7-5[16:1]/3-1[16:1],2/6,
3/7,{16}5/1,1/5,2/6,6/2,3,5-8[32:3],2,6,1-4[32:3],5,,,{8}1/6,
5h[8:1],4>1[8:1],8<5[8:1],4p7[8:1],8p3[8:1],4,,1,
{16}4,7,{32}5,6,5,6,{16}5-8[16:1],4,6,3,5,2,6,1,7V58[8:1],2,8,1,
7,3,3,7,4-1[16:1],5,3,6,4,7h[8:1],{8}3,3-1[16:1]/7-5[16:1],6/2,
7/3,{16}1/5,5/1,{8}6/2,7-1[32:3],1-6[32:3],6-2[32:3],2-4[32:3],4<2[4:1],
7>2[8:1],2xqq5[4:1]*qq4[4:1],{4}3,{8},,1,2,
3,4bh[8:1],{16}5-1[12:1],4,6,4,{8}5,4h[8:1],{16}5<8[8:1],4,6,3,
2x,2,{8}2,{16}5h[16:1],3h[16:1],6h[16:1],4h[16:1],{8}7h[8:1],1h[8:1],{16}8-4[16:1],1-5[16:1],7,2,
8,1,{8}1xh[8:1],{16}4-8[12:1],5,3,5,{8}4,5h[8:1],{16}4>1[8:1],5,3,6,
7x,7,{8}7,{16}4h[16:1],6h[16:1],3h[16:1],5h[16:1],{8}2h[8:1],8h[8:1],{16}1-5[16:1],8-4[16:1],2,7,
1,8,{32}8x,8x,5x,5x,{16}1-3[16:1],7,2,8,1,6,{8}7h[8:1],{16}4-8[8:1],5,3,6,
7x,7,{8}7,{16}5h[16:1],3h[16:1],6h[16:1],4h[16:1],7h[16:1],1h[16:1],{8}8,{16}8-5[16:1],7-4b[16:1],6,1,
8x,7x,{8}8xh[8:1],{16}5-7[16:1],2,6,3,5,1,{8}2h[8:1],{16}5-1[8:1],4,6,3,
2x,2,{8}2,{16}4h[16:1],6h[16:1],3h[16:1],5h[16:1],2h[16:1],8h[16:1],{8}1,{16}1-4b[16:1],2-5b[16:1],3<2[16:3],8,
1x,2x,{8}3x,
E
