&title=Red Swan
&artist=YOSHIKI feat. HYDE
&first=0.88
&des=心白-HW
&des_5=心白-HW
&lv_5=14
&inote_5=(132){4},{1},{4},,,{2}6h[2:1],
5h[2:1],
{8}4h[8:3],{4},{8}3h[8:5],{4},,{2}6h[2:1],
5h[2:1],
{8}4h[8:3],{4},{8}3h[8:5],{4},,{8}6<1[8:1],
5,{4}6,{16}4>1[8:1],5,{8}5,{4}4,
{8}6-1[8:1],5,6,4-1[8:1],{16}5,5,{8}4,5,{16}4,4,
{8}5<8[8:1],4,{4}5,{16}3>8[8:1],4,{8}4,{4}3,
{8}5-8[8:1],4,5,3-8[8:1],{16}4,4,{8}3,4,{16}4,5,
{8}6<8[8:1],4,{4}6,{16}3>1[8:1],4,{8}5,{4}3,
{8}6<8-4[2:1],3,6,3-1[8:1],,3,,{16}5,6,
{4}7-5[8:1],{8}7,{16}4,3,{4}2-4[8:1],{8}2,{16}7,8,
{4}1-6[8:1],1-4[8:1],1/5-8[8:1],5-2[8:1],
{8}5<5[1:1],{4},{8}1,{2}1q5[2:1],
{4},,{16}6h[16:3],{8},{16}7h[16:3],{8},8,
{1}8-6-1-5-2-4[1:1],
{4},,{8},1,{4}1h[4:1],
{8}5h[8:3],{4},{8}1>1[8:7],{2}5s1[4:3],
{4},,,1pp1<5[4:3],
{8}1,{4},{8}5,{2}5pp5>1[4:3],
{4},{8},8,{16}8h[2:1],{8},{16}2h[16:3],{4},2>5p1[4:3],
8,{16}8,7,{8}6,{4}6,
{8}7,7h[8:3],1,1,1h[2:1],7h[4:1],{4},7v4V68[4:3],
1,{16}1,2,{8}3,{4}2-6[8:1],
{8}2-4[8:1],7,2,5,{16}4,5,{8}3,5/3,5/3,
5h[4:1]/3h[4:1],{4},{8}6/4,{2}4qq4b[4:3]/6pp5b[4:3],
{4},,,{8}6/3,7/2,
{256}8-5<7[2:1],1-4>2b[2:1],{4},,,{16},{64},,,{128},{8}1/8,
{2}1h[4:1]/8h[4:1],7h[4:1]/2h[4:1],
{1}3bqq4<3[2:3]/6bpp5>6[2:3],
,{2}6h[2:1],
5h[2:1],
{8}4h[8:3],{4},{8}3h[8:5],{4},,{2}7h[2:1],
6h[2:1],
{8}5h[8:3],{4},{8}4h[8:5],{4},,{2}8h[2:1],
7h[2:1],
{4}6h[8:7],{8}5,4,3,2h[4:1],{4},{1}6<2[4:3]/2>6[4:3],
{4},{8}5/1,4/8,3/7,2pp7[8:9]/6pp3[8:9],{1},{4},,,8/4,
5/1,
{8}6h[4:1]/2h[4:1],{4},{8}7/3,{2}7>2[2:1]/3p6[2:1],
{4},{8},5/1,{16}4/8,{8},{16}3/7,{8},2/6,
6V85[2:1]/2V83[2:1],{4},,,{8}4,
{2}4h[4:1],5h[4:1]/3h[4:1],
{8}6h[4:1]/2p1<2[4:3],{4},{8}7,{2}7h[2:1],
{8},1,1V35[4:1],1,{16}6,{8},{16}7,{8},8,
{1}8qq3[8:5]*qq5pp8[4:5],
{8}4,4,4,3h[16:1],3h[16:1],3,2,2,
2V48-4[4:5],{4},{8}5-7-5[8:7],{2}5,
{4},,,{8}6<8v6[4:5]/4>2v4[4:5],6/4,
{1}6/4,
{4},{8},3h[16:1]/7h[16:1],,8/2,{16},,{32}1,2/8,3qq5[16:25]/7qq1[16:25],4/6,
{1}5,
,{2}8h[4:7]/E5,
E4,
{8}E3,{4},{8}E2,{4},,{2}1h[4:7]/E5,
E6,
{8}E7,{4},{8}E8,{4},,C,
{16}8/1,7,6,1,8,7,2,1,8,3,2,1,
4,3,2,1,5,4,3,2,6,5,4,3,7,6,5,4,
8,7,6,5,4,3,2,1,5,6,7,8,{12}1,2,3,
{8}4,5,6,7,{16}2,{8},{16}3,{8},4,
,5h[2:1],{4},{16},{32}2,1,{8}8w4[2:1],{4},,,{2}5h[4:1]/4h[4:1],
{8}6,5,4,3,6,5,4,3,
{4}2h[4:1],1,{8}8,7h[8:3],{4},{8}2,
1,8,7,2,1,8,7,
{4}6h[4:1],5,4,3h[4:1],
{8}7,6,5,4,7,6,5,4,
{4}3h[2:1],6h[8:3],,,{8}2,
3,4,5,{2}6h[2:1],
{8}2,{4},{24}1,2,3,{8}4b/5b,2b/7b,,3,
{2}3h[2:1],7,
{8}6,6h[8:3],,2,{2}2,
{8}1h[2:1],{4},{8}5,{2}5,
{8}8,8h[8:3],,4,4,{4},{8}1,
1>3[8:1],{4},{8}5,{2}5<7[8:1],
{8}3,3<5[8:1],,7,7>1[8:1],{4},{8}4,
4-2[8:1],{4},{8}8,8-6[8:1],{4},{8}3,
3-1[8:1],3,,7,7-5[8:1],7,,8,
8V24[2:1],{4},{8}4,{2}4-8-6[2:1],
{8}6V42[2:1],6,,2,2-6-8[2:1],{4},{8}8,
8q4[2:1],{4},{8}4,4<1[2:1],{4},{8}1,
1p4[2:1],1,,4,4>1[4:1],4,{4},{1}Cfh[24:37],
{4},{16},,{64},,{96},{192}B3/B7,{64},,{192}B6,B2,{64},,{192}B5,B1,{64},,{192}E5,{24}E1,{4},{16},,{64},,{96},{32}1x,
2,{16}3,5,4,6,3,7,2,{32}8x,7,{16}6,4,5,3,6,2,7,
{32}2x,3,{16}4,6,3,5,2,{32}7x,6,{16}5,3,6,4,7,{32}2x,3,4,5,6,7,8,1,
2x,3,{16}4,6,3,7,2,8,1,{32}7x,6,{16}5,3,6,2,7,1,8,
{32}2x-6[8:1],3,{16}4,{32}8x-4[8:1],7,{16}6,{8}2x,8x,{4}5xh[2:1],1xh[4:1],
{32},4/8,3/7,2/6,{8}1q5>2[8:3]/5q1<6[8:3],{4},,{8},{16}1/5,5/1,
{4}5h[2:1]/1h[2:1],,,{24}3,4,2,6,5,7,
2x,3,4,7x,6,5,1x,2,3,8x,7,6,2x,3,4,1x,2,3,7x,6,5,8x,7,6,
1x,2,3,5x,6,7,2x,3,4,6x,7,8,3x,4,5,6x,7,8,{16}1bx,1bx,{8}1bx,
{32}4b,5,{16}4,6,3,6,2,7,1,{32}5b,4,{16}5,3,6,3,7,3,8,
{32}2b,1,{16}2,7,3,5,4,{32}7b,8,{16}7,2,6,4,5,{32}4,3,2,1,8,7,6,5,
{8}4bp7>2[2:1]/8bp3<6[2:1],{4},,,{16}3/7,4/8,
{4}5h[2:1]/1h[2:1],,,{32}E1,B8,B7,E7,E5,B4,B3,E3,
{16}2xh[16:11],{4},,{8},{16}3xh[16:3],{8},{16}4xh[16:1],5xh[16:1],
6xh[16:1],7xh[16:7],{4},{16},,{32}E5,B4,B3,B2,{8}E2,{16}1x,8,7,6,
{8}5h[8:5],4,4,4,4,4h[24:7],{12}6,6,6,
7/3,7h[12:5]/3h[12:5],{4},,{12},{4}3-8[8:1]/7-4[8:1],
{1}Cf/3q5[4:3]/7q1[4:3],
{4},{8}1qq6pp1[2:3],1,1,5,,5,
{1}5p2[4:3],
{2},{4}2/1,1q7p1[1:1]/2>6>2[1:1],
{1},{4},{8},8/1,
{16}7/2,{8},{16}3/6,{8},5/4,
5-8-6[8:3]/4-1-3[8:3],{4},,,{8}6/3,
{2}6h[4:1]/3h[4:1],7h[4:1]/2h[4:1],
{8}8<5[8:1],3,{4}8,{16}1>4[8:1],6,{8}6,{4}1,
{8}7qq5[8:1],8,{4}7,{16}2pp4[8:1],1,{8}1,2,{16}6,7,
{8}8p4[8:1],2,{4}8,{16}1q5[8:1],2,{8}3,{4}1,
{8}6-8[8:1],5,{4}6,{16}3-1[8:1],4,{8}4,3,{16}5,6,
{8}7-4[8:1],1,{4}7,{16}2-5[8:1],8,{8}8,{4}2,
{8}8-6[8:1],4,{4}8,{16}1-3[8:1],5,{8}5,1,{16}5,6,
{4}7-5[8:1],{8}7,{16}1,2,{4}3-1[8:1],{8}3,{16}6,7,
{4}8-6[8:1],{8}8,{16}2,3,{4}4w8b[8:1],4b/Cf,
{16}2b,6,2,6,2,6,2,6,4b,6,4,6,4,6,4,6,
8b,6,8,6,8,6,8,6,2b,6,2,6,2,6,2,6,
2b,8,2,8,2,8,2,8,2b,4,2,4,2,4,2,4,
2b,6,2,6,2,6,2,6,{32}2,3,4,5,6,7,8,1,5,4,3,2,1,8,7,6,
{8}5h[8:1],1,5h[8:1],{16}2,2,5h[8:1],3,{8}3,5h[8:1],{16}4,4,
{8}4h[8:1],5,4h[8:1],{16}6,6,4h[8:1],7,{8}7,4h[8:1],8,
8-6[8:1],3,8,{16}3,4,5-8[8:1],6,{8}7,5,{16}3,2,
{8}1-3[8:1],6,1,{16}6,5,4q8[8:1]*p8[8:1],3,{8}2,{4}4b,
{32}1x/7b,2x,3x,4x,5x,6x,7x,8x,1x,2x,3x,4x,5x,6x,7x,8x,1x/6b,2x,3x,4x,5x,6x,7x,8x,1x,2x,3x,4x,5x,6x,7x,8x,
1x/5b,2x,3x,4x,5x,6x,7x,8x,1x,2x,3x,4x,5x,6x,7x,8x,1x/4b,2x,3x,4x,5x,6x,7x,8x,1x,2x,3x,4x,5x,6x,7x,8x,
1x/E8/A7,2x,3x,4x,5x,6x,7x,8x,1x,2x,3x,4x,5x,6x,7x,8x,1x/B6/A6,2x,3x,4x,5x,6x,7x,8x,1x,2x,3x,4x,5x,6x,7x,8x,
1x/E5/A5,2x,3x,4x,5x,6x,7x,8x,1xw5[8:1],2x,3x,4x,5x,6x,7x,8x,{4}1x/Cf,{8}7,8,
1-4[8:1],2,1,{16}6-1[8:1],5,{8}7-4[8:1],6,{4}7,
{8}8-3[8:1],7,8,{16}5-8[8:1],4,{8}6-3[8:1],5,{4}6,
{8}1>5[4:1],1,5<1[4:1],5,1V35[4:1],1,5V71[4:1],5,
{4}1p5[4:1],5p1[4:1],1<5[4:1],5q4[2:3]*<4[2:3],
{1},,{2}6h[2:1],
5h[2:1],
{8}4h[8:3],{4},{8}3h[8:5],{4},,{2}6h[2:1],
5h[2:1],
{8}4h[8:3],{4},{8}3h[8:5],{4},,{2}6h[8:11],
5h,
{8}4h,{4},{8}3h,
