&title=暗闇の風穴
&artist=上海アリス幻樂団
&first=0
&des=Acadm
&clock_count=4
&lv_5=12+
&inote_5=(160){1},,
{4}4h[4:1],5h[4:1],6q3[4:1],
6h[2:1],,,
{4}4h[4:1],5h[4:1],6h[4:1],
7<5[4:1],3,4,
{4}4h[4:1],3h[4:1],2h[4:1],
1p5[4:1],4,3,
{4}2<2[4:3]/5h[4:3],,,
,,,
{8}2,3,4-1[8:1],,48,,7,6,5-8[8:1],,51,,
{8}3,2,1-4[8:1],,15,,6,7,8-5[8:1],,84,,
{8}4,3,2-7[8:1],,2/7>2[8:1],,5,6,7-2[8:1],,73,,
{4}1b/5,,,{16}45,,27,,3,6,4,5,1,,1,,
{4}4h[4:1],6h[4:1],8v5[8:1],{8}2h[4:3]/8,,7,8,7,6,
{4}5-2[8:1],2-7[8:1],7-4[8:1],{8}2h[2:1],,,,1,8,
{4}7<4[4:1],4>1[4:1],1,3h[4:1],4h[4:1],5h[4:3],
{4}6-8[12:1],6-4[12:1],6V42[8:1],46,27,{16}1,8,1,,
{4}5h[4:1],3h[4:1],1v4[8:1],{8}7h[4:3]/1,,2,1,2,3,
{4}4-7[8:1],7-2[8:1],2-5[8:1],{8}7h[2:1],,,,8,1,
{4}2b-4[8:3],7,8,1b-5[2:1],6,7,8b-6[8:3],4,3,
{16}27,,18,,2,7,3,6,4,,5,,
{8}2,1,3,4,3,2h[4:1],,6h[4:1],
{8},8,7,6,1,2h[4:1],,7h[4:1],
{8},1,3,4,3,2h[4:1],,5h[4:1],
{8},8,1,2,3,4,5,6,
{8}7,8,6,5,6,7h[4:1],,3h[4:1],
{8},1,2,3,8,7h[4:1],,2h[4:1],
{8},7,5,4,5,6h[4:1],,3h[4:1],
{8},7h[8:1],4h[8:1],6h[8:1],3h[8:1],5h[8:1],3,2,
{8}3b-8[8:1]/4,,7h[4:1],,6,5,4,3-7[8:1],
{8},6h[8:3],,,7,8,1,2-7[8:1],
{8},6h[8:3],,,5,4,3,2>5[8:1],
{8},5,6,7,8<5[8:1],5,4,3,
{8}5-1[8:1],,2h[4:1],,3,4,5,6-2[8:1],
{8},3h[8:3],,,2,1,8,7,
{16}2b/6b,,,,2,6,3,5,4,,4h[8:3],,,,,,5,3,5,3,5,,3,6,,4,5,,3,5,4,6,
(320){1},(160)
{4}8<5[8:1],8p4[8:1],8v3[8:1],1v6[8:1],1V38[4:1],8,
{8}7-5[12:1],,7p4[4:1],,8,,3b,,,,62,73,
{4}8>4[4:1]/4,4<8[4:1],8qq4[2:1],2,4,2>6[4:1],
{4}6>2[4:1],2>2[2:1],6,8h[4:3],,4,
{4}4>1[8:1],4p8[8:1],4v7[8:1],5v2[8:1],5V74[4:1],4,
{8}3-1[12:1],,3p8[4:1],,4,,7b,,,,26,37,
{4}4<8[4:1]/8,8>4[4:1],4qq8[2:1],6,8,6<2[4:1],
{8}2<6[4:1],2,3,3,4,4,5,5,{16}4,5,3,5,2b,,1b,,
{8}1>4[8:1],7,8q5[8:1],,8,,1>4[8:1],7,8q5[8:1],,8,,
{8}1,1,3,3,5,5,7,8,5,4,1,2,
{8}4>1[8:1],6,5p8[8:1],,5,,4>1[8:1],6,5p8[8:1],,5,,
{8}2h[8:1],1,7h[8:1],6,3h[8:1],4,6h[8:1],5,2h[8:1],3,7h[8:1],8,
{8}1V35[8:1],7,8v6[8:1],,8,,1V35[8:1],7,8v6[8:1],,8,,
{8}2h[8:1],3h[8:1],4h[8:1],5h[8:1],6h[8:1],7h[8:1],8,1,8,1,6,7,
{8}4h[4:1]/8p1[4:1],,,,4b,,5h[4:1]/1q8[4:1],,,,5b,5b,
{8}45,3,45,6,35,2,46,7,{16}2,7,3,6,4b,,5b,,
{1}36,
