&title=夕映えプレゼント
&artist=CINDERELLA PROJECT/TVアニメ「THE IDOLM@STER CINDERELLA GIRLS」第1期第2話EDテーマ
&first=0.9
&des=Ragna
&wholebpm=175
&demo_seek=51.2
&demo_len=22
&des_5=Ragna
&lv_5=12+
&inote_5=(175){2}
2z6[4:3],,
5p4[4:3],,
1pp1[4:3],,
5-8[4:3],4,
1V73[4:3],,
6<3[4:3],,
4-1[4:3],{4}5,6,
7pp3[2:1]*pp3[2:1],,,,
4-1[8:1]/5-8[8:1],4b/5b,{8},2,4,3h[4:1],
,8,2,7,1,6,4,5,
36,,2,8,1,6,4,5,
2,7,1,8z4[16:5],,,3,,
2qq5[16:8],,,,6,6,6,6h[4:1],
,5,74,,3,5,2h[4:1],,
4q1[4:1],,1<4[16:5],,3,3,3,3h[4:1],
,4,25,,6,4,7h[4:1],,
5qq1[16:8],,,,8,8,8,8h[4:1],
,1,27,,3,5,4h[4:1],,
6q3[4:1],,3>6[16:5],,4,4,4,4v5[8:1],
,5v4[8:1],,4p5[4:1],,6,6,,
8qq4[2:1],,,,3,3,3,3h[4:1],
,4,25,,1,7,2h[4:1],,
8p3[4:1],,3<8[16:5],,1,1,1,1h[4:1],
,8,27,,6,4,5h[4:1],,
3>6[16:5],,4,4,,5pp4[8:3],,4,
,,1,1,,,3,5,
4h[8:3],,6,6-1[8:1],,2-5[8:1],,8>7[8:3],
,4,,1h[8:3],,,8,,
27,,,,6pp7[4:1],,,,
4-1[8:1],,,,7h[4:1],,8h[4:1],,
5pp5[4:1],,,,4^1[8:1],,,,
5h[4:1],,8h[4:1],,7h[4:1],,2h[4:1],,
1^6[8:1],,4,4h[4:1],,5,36,,
2-6[8:1],,8,8h[4:1],,5,74,,
6-1[8:1],,2,2h[4:1],,8,37,,
4h[4:1]/5h[4:1],,,2h[4:1]/6h[4:1],,,1pp5[16:7]/8qq4[16:7],,
,,,,,,4q1[4:1],,
1b>5[4:1],,5>1[4:1],,8,,5p8[4:1],5,
8<4[4:1],,4<8[4:1],,1,,3,,
1h[4:1]/2,,3,8h[4:1]/4,,5,7pp2[8:5]/6p3[8:5],,
,,,,,,,,
4^1[8:1],,5h[4:1],,8,7,16,16,
,45,4q1[16:3]/5p8[16:3],,,,,,
18,8-6[8:1]/1-3[8:1],,8-4[8:1]/1-5[8:1],,18,,6q3[16:3]/3,
,4,4q5[8:3],,,,,,
8bV64[4:1],,4V68[4:1],,1,,3q1[4:1],3,
1V35[4:1],,5V31[4:1],,8,,6,,
7/8h[4:1],,6,1h[4:1]/5,,4,2p7[8:5]/3pp6[8:5],,
,,,,,,,,
5qq4[4:1],,,,1,1,6,6<3[4:1],
,3,,,1,1,5,5,
3^8[4:1],,8^5[4:1],,5^2[4:1],,2^7[4:1],,
7pp3[16:7]*pp3[16:7],,5,5,5h[4:1],,,,
5bq2[4:1],,2p5[4:1],,4,,3pp4[4:1],3,
4p7[4:1],,7q4[4:1],,5,,7,,
5h[4:1]/6,,7,4-1[8:1]/8-5[8:1],,48,,6h[8:3],
,2,3,4-8[8:1]/5-1[8:1],,45,,27,
2qq1[4:1]/7,,,,6,6,3,3>6[4:1],
,6,,,8,8,4,4,
6-8[8:1],,2-4[8:1],,1-6[8:1],,5<4[8:3],,
8,,5,5,5pp7[8:1]*qq3[8:1],,5,,
,18,18,18,1^6[8:1]/8^3[8:1],,18,,
45,3,45,6,45,2,45,7,
18,27,36,45,,2b/7b,2b/7b,,
,,,,,,,,E
