&title=Satellite
&artist=a_hisa feat. 東北きりたん
&first=0
&des_5=雙木 きみの
&lv_5=12+
&inote_5=(120)
{1},,
{8}E6,,,,B5,,,,
{8}B4,,,,E4,,,,
{8}D7,,,,B6,,,,
{8}B3,,,,D3,,,,
{8}E8,,,,B8,,,,
{8}B1,,,,E2,,,,
{8}E7,,,C,,,,3xh[8:7],
{8},,,,,,,,
{8}81,,C,,82,,C,,
{8}71,,C,,72,,D5,,
{8}81,,C,,71,,C,,
{8}82,,C,,72,,E5,,
{8}18,,C,,72,,C,,
{8}63,,C,,54,,E1,,
{8}63,,28,8/2h[4:1],,4-1[4:3],5,6,
{8},E6,B6,B7,E8,,Ch[4:1],,
{8}1bV35[4:1],,5,8,7,6<3[4:1]/5,,1,
{8},4V25[4:1],5,6,7,,6-8[8:1]*-2[8:1],5,
{8}6,,1-4[8:1],8,5V38[4:1],6,7,8,
{8},{16}7,1,{8}8>6[8:3],2,3,E8,E1,E2,
{8}8qq7[4:1],,4,1,2,3>6[4:1]/4,,8,
{8},5V74[4:1],4,3,2,,15,37,
{8}8/3-8[8:1],7,63,,5-1[8:1]/4,3,52,,
{8}5xV74[4:1],7,4V61[4:1],3,2,{16},4,{8}4,{16}6,5,
{8}4/8V64[4:1],,4,1,2,3>6[4:1]/4,,8,
{8},5V37[4:1],3,2,1,,2w6[8:1],1,
{8}2,,8v5[8:1],1,4V61[4:1],3,2,1,
{8},{16}2,8,{8}1<3[8:3],7,6,E2,E1,E8,
{8}2v3-5[4:1],,5,8,7,6<3[4:1]/5,,1,
{8},4V25[4:1],5,6,7,,84,62,
{8}1/5-8[8:1],2,35,,5/7-4[8:1],4-8[8:1],3,2,
{8}3V52[4:1],5,2V41[4:1],1,8,{16},6,{8}6,{16}8,7,
{8}6/E3,B3,B4,B5,E7/2x,B6,B5,B4,
{8}7x/E3,B3,B4,B5,E7/2x,B6,B5,B4,
{8}7x/E3,B3,B4,B5,E7/2x,B6,B5,B4,
{8}7x/E3,B3,B4,B5,E7/2x,B6,B5/1,B4/1,
{8}3/8x-6[8:1],,B7,,4-2[8:1]/5,,B3,,
{8}1/7x-5[8:1],,B6,,3-1[8:1]/5,,B2,,
{8}1/6x-4[8:1],,B5,,2/5,,1,7h[4:1],
{8},4,65,54,43,,6,4,
{8}6/2x-4[8:1],,B3,,6-8[8:1]/4,,B7,,
{8}8/1x-3[8:1],,B2,,6/4,,3,4,
{8}5/3,,8,71,,1,2,8V27-3-6-4[8:5]/3,
{8},A8,A2,A7,A3,,1x,2x,
{8}3/5x-7[8:1],,B6,,1-3[8:1]/8,,B2,,
{8}4/6x-8[8:1],,B7,,2-4[8:1]/8,,B3,,
{8}4/7x-1[8:1],,B8,,3/5,,25,36,
{8}4/7h[4:1],,5,46,35,,7,1,
{8}7/3x-1[8:1],,B2,,7-5[8:1]/1,,B6,,
{8}5/4x-2[8:1],,B3,,7/1,,8,7,
{8}6/8,,3,42,,7,6,1V72-6-3-5[8:5]/5,
{8},A1,A7,A2,A6,,,,
{8}1bV35[4:1]/7b,,5v2[8:1],8,7,6<3[4:1],,1,
{8},4V25[4:1],6<1[8:1],7,6-2[8:1],,6<1[8:1]/1-5[8:1],3,
{8}16,,2>5[8:1],8,5V38[4:1],7-4[8:1],8,7,
{8},{16}5,2,{8}1<3[8:3],8,7,2x,1x,8x,
{8}7pp6[4:1],,6p4[4:1],5,4,3>6[4:1],,8,
{8},5V74[4:1],3>8[8:1],4,3,,15,37,
{8}8-4[8:1]/3-8[8:1],4,83,,5-1[8:1]/2-5[8:1],1,52,,
{8}5xV74[4:1],7,4V61[4:1],3,2,{16},4,{8}4,{16}6,4,
{8}8V64[4:1]/3,,4v7[8:1],1,2,3>6[4:1],,8,
{8},5V74[4:1],3>8[8:1],2,3-7[8:1],,3>8[8:1]/8-4[8:1],6,
{8}83,,7<4[8:1],1,4V61[4:1],2-5[8:1],1,2,
{8},{16}4,7,{8}8>6[8:3],1,2,7x,8x,1x,
{8}2V83[4:1],,3V52[4:1],4,5,6<3[4:1],,1,
{8},4V25[4:1],6<1[8:1],5,6,,84,62,
{8}1-5[8:1]/6-1[8:1],5,16,,5/7-4[8:1],4-8[8:1],3,2,
{8}3V52[4:1],5,2V41[4:1],1,8,{16},6,{8}6,{16}8,7,
{8}1b>7[2:1]/6b,,8,8,7<1[2:1],,8,8,
{8}1q7[2:1],,8,8,7x,,5x,,
{8}6xh[8:15]/E6,B8,B4,E2,A5,A7,E4,E1,
{8}B6,A1,E5,A2,C,{16}E3,E4,{8}E5,D2/E2,
{8}8<2[2:1]/2,,1,1,2>8[2:1],,1,1,
{8}8p2[2:1],,1,1,2x,,4x,,
{8}3xh[2:3]/E4,B1,B5,E8,A4,A2,E6,E1,
{8}B3,A8,E5,A7,C,{16}6,5,{8}6,{16}3,4,
{8}2b-6[2:7],,,,,,,,
{8},,,,,,,,
{8},,,,,,,,
{8},,,,,,,,
{8}7-3b[2:7],,,,,,,,
{8},,,,,,,,
{8},,,,,,,,
{8},,,,,,,,
{8}E1,,E2,,E3,,E4,,
{8}E5,,E6,,E7,,E8,,
{8}C,,E5,,D5,,,,
E
