&title=瞬間、シンフォニー。
&artist=40mP,夏吉优子
&first=-0.1
&des_1=yachiyo chroNicle
&des_2=yachiyo chroNicle
&des_3=yachiyo chroNicle
&des_4=yachiyo chroNicle
&des_5=yachiyo chroNicle
&lv_5=13+
&des_6=yachiyo chroNicle
&des_7=yachiyo chroNicle
&des=yachiyo chroNicle
&inote_5=(200){4},,{256}5x-8[2:7],4x-1b[256:895],{1},,,{4},,,{16},,,{64},,,{128},{256}4x-1[2:7],
5x-8b[256:895],{1},,,{4},,,{16},,,{64},,,{128},{256}5x-8[2:7],
4x-1b[256:895],{1},,,{4},,,{16},,,{64},,,{128},{256}4x-1[2:7],
5x-8b[256:895],{1},,,{4},,,{16},,,{64},,,{128},{2}7xh[4:3]/2xh[4:3],
,6xpp4[4:3],
,2xv5-3[4:3],
{4},,8,8/6,
1,1/3,{2}7qq1[4:3],
,2pp5[4:3],
,8q1[4:5],
{4},,,,,2<7q3[4:3],
{2}2/5h[4:3],
,4h[4:3]/5p8[2:1],
,7p2[2:1],
{4},,3,4,
5,6,{8}7h[8:3],,,1h[8:3],
,,{4}4<2[4:3],3,{8}2,2,
,,{4}4h[4:1],5h[2:3],{8}7,7h[8:9],
,,,,,,,,,,{4}3-5[8:1]/1-5[8:1],
3/1,8/6-3[8:1],
6/4h[1:1],{8}1,1,,8,8,7,
{4}7,6-4[8:1]/8-4[8:1],6/8,1/3-6[8:1],
3/5h[1:1],{8}8,8,,1,1,2,
{4}2,6<1[4:1],1<6[4:1],{8}4,4h[4:1],
,5h[4:1],,7h[8:3],,,{4}1V75[4:1],
5V31[4:1],1<1b[4:3],{8},,,,,,5,
5-8[8:1],{16},,5/2x,3x,{8}4xh[8:1],1b,
{16},,,,4,3,4,3,{4}4V68[4:1],8V64[4:1],
{8},,2,3h[8:7],,B1/E2,,E8/B7,
,B4/E5,{4}E3,3-6[4:1],{8}7,7V51[4:1],
,,,E3f,{16},,3s7[8:3],4,3,4,,,,,,,{4}8-4[8:1],
{2}8b,
{8}2/5,2-4[8:1]/5-7[8:1],,5b/2b,,,7h[8:3],4h[4:1],
,,{4}7-5[8:1]/4-2[8:1],{2}7b/4b,
{8}4/3,4-8[8:1]/3-7[8:1],,4b/3b,,,6>4[8:1],6,
2<8[8:1],2,,4,4,4,2,2,
8,8,6,6,4,4,1,1,
8,8,2,2,6x-8[8:1],,,2x-4[8:1],
,,{4}5x-1[8:1],{2}5bx,
{32}8/2,7/3,6/4,5,,,,,{4}5-7[8:1]*-3[8:1],5b,2h[8:1]/8h[8:1],
{8},4h[8:1]/6qq8[8:3],,6b/2b,{24},,,,,,A2,D3,A3,D4,A4,D5,
{4}7bh[4:1]/A5,5bh[4:1],4-6[8:1]*V28[4:1],4,
{8},7-3[8:1],,7b/4h[8:5],,,{4}2<6[4:1],
2,4-7[8:1]*-1[8:1],,A8f,
{8}7,7p2[4:1],2,7/2<4[8:3],,,{4}4q1[4:1],
{2}1q6[4:1],{4}1,2/8,
8,{8}7/1,7h[8:1],,5h[8:1],4h[8:1],2bz6[4:1],
,,,,{4}8<4[4:1],4p7[4:1],
7p2[4:1],{8}3,3h[8:3],,,{4}1b,
1>5[4:1],5q2[4:1],2q7[4:1],6,
6h[4:1],{8}8,5qq7[8:3]/1pp7[8:3],,,,,,,{4}6/8,
2/4h[2:1],5,
{8}6,6<1[4:1],,6/5h[8:3],,,{4}2,
4/7,2/5,3-7[8:1],{8}5,5h[8:3],
8,1,{4}2,{2}7b/6b,
2b/3b,8b/1b,
5b/4b,{4}6bx,6bx-8[8:1],
3bx,3bx-1[8:1],{2}7bxpp4[2:1],
{4},2bxh[4:1],{16}4bx,5,6,7,8/1,2,3,4,
{2}6/5-1[8:1],{16}7x-4[4:1],,,2,,,{8}2,
{16}3x-8[4:1],,,5,,,{8}5,{2}6x-1[4:1],
{8}2x-5[4:1],,,8b,{2}8b>6q8[2:3],
,,,2b/5b,
{16}4/3,,,4/3,,,{8}4/3,{2}3-1[8:1]/4-6[8:1],
{16}8/7,,,8/7,,,{8}8/7,{2}8-2[8:1]/7-5[8:1],
3h[8:3]/4h[8:3],6h[8:3]/5h[8:3],
2h[8:3]/1h[8:3],7b/4b,
{16}5/6,,,5/6,,,{8}5/6,{2}6-8[8:1]/5-3[8:1],
{16}1/2,,,1/2,,,{8}1/2,{2}1-7[8:1]/2-4[8:1],
6h[8:3]/5h[8:3],3h[8:3]/4h[8:3],
7h[8:3]/8h[8:3],{256}2-7-4-1[2:3],5-8-3-6b[256:383],{1},{4},,,{16},,,{64},,,{128},{2}Cf/7>5[4:15],
,,,,,,,6<4[4:15],
,,,,,,,5<3[4:15],
,,,,,,,4<2[4:11],
{8},,,,,,,,,,,,,,,,3,
3,3,3,{16}E2,E3,E4,E5,E6,E7,E8,E1,
{2}E2/Cfh[2:1],{8}1x-5b[8:1],,,7x-3b[8:1],
{1},{4},{16},{32},2x,
3x,4x,{16}5xh[16:11],,,,,{4}2bx,
{8},8bx,,,{4}7h[4:1],5h[4:1],
4h[4:1],2h[4:1],3-8b[8:1],{8}5/3,5h[8:11],
,,{4}7,8,1,
2,3,{16}6,4,6,4,6,4,6,4,
{2}6<1[4:1],2>6[4:1],
8h[2:1],{4}2b,5h[4:1],
4,5h[4:1]/C,6q3[4:1],5h[4:1],
,5/4,6-3[8:1],6/2h[4:1],
7-2[8:1],7/4h[4:1],3q7[4:1],7q4[4:1],
4<8[4:1],1,{8}1-5[8:1],,,7-3[8:1],
,,{4}1h[4:5],,3,
4,5,{8}6-4[8:1],6,2,2h[8:3],
,8,{4}3h[8:3],{8}1,1h[8:3],,C,
{4}8h[4:1],6-4[8:1],6/2-8[8:1]*-7[8:1],2,
5/6-1[8:1],{8}6/7,7h[2:1],,2,3,4,
{4}6/5,3-5[8:1],3/7-1[8:1]*-2[8:1],7,
4/3-8[8:1],{8}3/2,2h[2:1],,7,6,5,
3/4v7[4:1],,,5,{4}5>2[4:1],{8}5/2p5[4:1],1h[4:1],
,,,E3h[8:3],,,{4}B4/E5,
E7h[4:1],B5/E5,{2}Cf,
{8}1-5[8:1],7-3[8:1],1,7,,,4,3/5,
{32},,,,E5,B4,B3,E3,B2,B1,{16}E1,,,{4}7-4[8:1]*-3[8:1],7,
2h[4:5],{8}E3/B2,1,,8,,7,
,,{4}6b,5/3,{8}4,4h[8:3],
,2,2,2h[8:3],,,{4}Cf,
{24}A6,E6,B5,B4,E4,A3,,,,,,,{2}1bh[4:1],
{8}7,7h[8:11],,6p3[8:3],,,,,,,{4}2,
{2}2b,
{8}3,3h[8:11],{32}6p7[4:1],5,{16}4,,,,,,,,,,,{8}1,
1,,,{4}6h[2:1],8,
4h[2:1],{8}8,8,{4}5h[2:1],7,
3h[2:1],1,{2}Cf,
{8},,4/5q6<3[4:3],5/6,,,,,,,,,8/6,
8/6,7/1,7/1,
,Cf,,2b-5V38[8:3],,2b,,,{2}6b,
2h[8:5]/4h[8:5],
{8},,,7h[8:7]/5h[8:7],,,,,,,,,{2}1h[4:3]/3h[4:3],
,8h[4:3]/6h[4:3],
,7h[2:7],
{8}5,5,,4,,,{4}3,
2,1,E1,E8,
E7,E6,{2}E5,
C,{4}2,6/4,
7,5/3,1pp7[2:1],1,
,6,2/8,3,
1/7,5pp3[2:1],5,1h[2:1],
,2,{2}5h[4:1]/6h[4:1],
{8}2,2/1-5[8:1],,1/8h[8:3],,,{4}6h[4:1],
{8}7,7,5,4,2h[8:3],,,3h[8:3],
,,{4}1h[4:3],,,,6/4,
{2}4v5-2[2:1]/6v5-8[2:1],
{16},,,,,,,,1,1,{8}1,8/2,2/8,
,6/4,,Cf,{24},,,,,,,,,,,,{6}5x/3x,
5x/3x,5x/3x,3xh[4:1]/5xh[4:1],,,1x/7x,
1x/7x,1x/7x,7xh[3:2],,B6/E6/B5,
,E4,E2,7xh[3:1],,5xh[48:23],
{24},,,{8}4x,{16},4xh[16:3],,,{2}2x-6[8:1],
8x-4[8:1],1x-5[8:1],
7x-3[8:1],{12}1x,8x,1x,8x,1x,8x,
1x,8x,1x,8x,1x,8x,1x,8x,1x,8x,1x,2x,
3x,4x,5x,6x,7x,8x,(100){4}1x/5bx-1[16:1],5bx,
8bq4[16:1]/1b>3[16:1],1bp5[0.6##0.15]/8b<6[0.6##0.15],(200)8b/1b,{8}E4,B2/E3,
,E1/B8,,Cf,{16},,,,,,,,7,
5,7,5,{4}7qq8[8:3],E6f/B6/B5,{8}1,1h[4:1],
,4-6[8:1]*-2[8:1],,4b,{32},,A1,D1,A8,D8,A7,D7,A6,D6,A5,D5,A4,D4,A3,D3,
{4}A2,5-2[8:1]*-8[8:1],5bx,A1f,
{8}2,2q7[4:1],7,2/7>5[8:3],,,{4}5p8[4:1],
{2}8p3[4:1],{4}8,7/1,
1,{8}2/8,2h[8:1],,4h[8:1],5h[8:1],7bs3[4:1],
,,,,{4}1h[2:1],E3/B3/E4,
8h[4:3],{8}E7/B6/E6,E7/B6/E6,,,,,{4}7/6,
2/3,8h[2:1],E6/B5/E5,
1h[8:5],{8}E4/B4/E5,E4/B4/E5,,,{4}2/3,
7/6,2/1-4[8:1],{2}1/8,
{8}6,6/5,,4/2,,,{4}5/7,
8/6,2/4,1h[1:1],{8}3,3,
,,{4}6,{2}8,
5/4,B7/E7/B6/B2/E3/B3,
{4}8p5[4:5],{8}1,1,{4}2,2,
2,2,3,{8}4,4/5,
,,{4}5/4q1[4:1],{8}4/3,,,2,
{2}2h[2:1],{16}4-7[8:1],,,3,,,{8}3,
{16}1-5[8:1],,,8,,,{8}8,{2}6-3[8:1],
{8}2-5[8:1],,,8,{2}8h[2:1],
{32}A1,D2,A2,D3,A3,D4,A4,D5,A5,D6,A6,D7,A7,D8,A8,D1,{2}A1/Cf,
{32}7b/1b,6/2,5/3,4,,,,,,,,,,,,,{2}E6/B5/B4/E4,
{6}7/6,5/8,4/1,3/2,,,3,
3/4,3,6/5,6,6,
2/3,2,2,7p3[4:1],,,{2}1q5[4:1],
8b,
{6}2/3,4/1,5/8,6/7,,,6,
6/5,6,3/4,3,3,
7/6,7,7,2q6[4:1],,,{2}8h[4:1],
2bx/1b,
{16}3,4,3,4,3,4,{8}3,{2}2/5,
{16}6,5,6,5,6,5,{8}6,{2}4/7,
{16}2,1,2,1,2,1,{8}2,{2}3/8,
{16}7,8,7,8,7,8,{8}7,{2}1/6,
{16}6,2,6,2,6,2,{8}6,{2}3/5,
{16}3,7,3,7,3,7,{8}3,{2}6/4,
{16}1/8,2,3,4,5/6,7,8,1,{2}2/4,
{16}8/1,7,6,5,4/3,2,1,8,{2}7/5qq1b[4:3],
,6qq1[4:3],
,3pp7b[4:3],
,8-4[4:1],
2b,{32}1bx/2bx,3x/8x,7x/4x,6x/5x,
E
