&title=第六天魔王
&artist=黒沢ダイスケ × Masahiro "Godspeed" Aoki
&first=0.07
&des=Nobu
&lv_5=14+
&inote_5=(150)
{1}
,
{1}
8bz4b[75#8:5]/1b,
{4}
,,,
{16}
1,2,3,4,
{4}
5b-1[4:1]/6,,,
{16}
,,7,6,
{4}
1b-5[8:1]/5,,7-3[8:1],2,
{4}
1bs5[4:2],,,
{8}
6h[4:3],,
{4}
4,4,
{16}
4,,,5,4,5,36,,
{16}
4,4,5,,6,5,,3,4,,6,5,6,5,7,,
{16}
6,6,4,,3,5,,6,4,,3,5,3,4,2,,
{16}
1,1,8,,7,8,,2,1,,8,1,7,2,7,,
{32}
3,4,3,,
{16}
5,
{32}
3,4,3,,
{16}
6,1,7,
{32}
2b,3,4,5,,,1b,2,3,4,,,8b,1,2,3h[32:17],
{4}
7h[4:2],3?s7b[8:1],,
{16}
5,5,3,,
{16}
6,5,6,4,7,,8-4[16:1],,1,,2,,3,3,5,,
{16}
4,6,5,7,5,,8-4[16:1],,1,,2,,3,3,5,,
{16}
6,4,6,5,7,5,6,4,
{24}
7,6,5,
{16}
2,2,
{24}
8,7,6,
{16}
3,3,
{16}
5,4,6,5,7,7,1-5[16:1],8,2,,7,,6,4,6,,
{16}
3,4,3,4,2,,1-5[16:1],,8,,7,,6,4,6,,
{16}
3,5,4,5,2,,1-5[16:1],,8,,7,,6,4,6,,
{16}
3,4,2,4,3,6,5,7,
{24}
2,1,2,1,2,1,3,8,3,8,3,8,
{24}
4,3,2,7,6,5,1,2,3,
{8}
4/8,
{16}
8,7,6,5v7[16:3],1,1,,,
{16}
1,2,3,4V28[4:1],6,6,,,8,7,6,5V71[4:1],,,1,,
{16}
1,2,3,4,,,7,6,5-1[8:1],4,3,2,,,2,3,
{16}
4,5-1[8:1],,,8,,8,7,6,52,,,
{24}
3,4,3,5,2,5,
{24}
1,2,3,5,6,7,2,3,4,6,7,8,
{16}
1-6[8:1],,2,3,4,5,,,
{16}
5-1[8:1],6,7,8,1,,,,1,8,7-4[32:3],6,5,,,,
{16}
1-5[8:1],2,3,4,5,,3,2,1-5[8:1],8,7,6,,,8,1,
{16}
2,3,,,4/5-2[8:1],,6,7,8,1,,,
{24}
8,3,8,2,1,2,
{24}
8,7,6,4,3,2,7,6,5,3,2,1,
{16}
8b,,6,5,7,1h[16:1],8,,
{16}
3,4,2,4,1h[16:1],8,,,6,5,8h[16:1],1,,,24,,
{16}
3,4,1,8h[16:1],,,7,5,6,5,7h[16:2],4,,,3,4,
{16}
2h[8:1],5,,,18,,1,8,2,7,,,
{24}
4,5,4,5,4,5,
{24}
3,2,1,8,7,6,3,2,1,8,7,6,
{4}
1b>8[8:7],1,
{4}
1,1,1>8b[8:6],1,
{4}
1,1,2<4[4:3],2,
{4}
2,2,3q6[4:2],3,
{4}
3,3,
{16}
2,5,2,5,4,6,4,5,
{16}
3,5,4,7,4,5,2h[16:1],,7,4,7,4,5,3,5,4,
{16}
6,4,5,3,5,4,7h[16:1],,
{16}
1,8,1,7,
{16}
2,4,3,7,
{16}
5,6,1,4,3,8,5,6,
{24}
3b,4,3,
{16}
5,2,
{24}
6b,5,6,
{16}
4,7,
{32}
1b,2,3,4,15,6,7,8,15,2,3,4,5bs1[16:3]/8b-4[16:3],,,,
{4}
,,
{4}
2v5b[10:1]/6-1b[10:1],2b/6b,
{8}
3h[8:1],
{24}
8,7,6,
{8}
4pp3[4:1],
{24}
7,6,5,
{16}
42,,1,,
{24}
8,7,6,5,4,3,
{8}
2/6h[8:1],
{24}
1,2,3,
{8}
5<2[4:1],
{24}
2,3,4,
{16}
5/7,,,,4,4,3,5,
{24}
2-6[8:1],3,4,
{16}
7,7,2-4[12:1],,8,8,
{8}
2,
{24}
1,8,7,3,2,1,5,6,7,
{16}
4b/8b,,3,2b/5b,,7,6b/8b,,
{16}
,,
{24}
2,1,2,
{16}
4,3,5,4,
{8}
6<1[8:1],45,
{24}
1,2,3,4b-8[10:1],,,
{8}
,4/7-3[10:1],,
{24}
2/7,3,4,5b,,,
{32}
84,37,6b<4[16:3]/2b,,,,,,1b/6b,,,,
{16}
,,,,6,5,6,5,4b/7b,,
{32}
1-5[10:1],2,3b/8b,,,,8,7,1b/6b,,,,
{8}
,
{24}
3,4,3,6,5,6,3,,,
{32}
2b/8b,3,4,5h[32:3],,,1b,2,3,4,,,8b/4x,1/5x,2/6x,3/7x,
{8}
,
{16}
18,,2,7,3,6,45,,2,5,3,4,2,4,
{16}
3,3,5,4,6,6,4,5,36,,5,4,6,4,5,3,
{16}
6,6,3,5,4,4,6,3,
{32}
7b,6,5,,
{16}
2,4,
{32}
1b,2,3,,
{16}
6,4,
{24}
7b,6,5,43,2,1,5b,6,7,81,2,3,
{16}
4b/7b,,8,
{32}
2b,1,2,,,,6b,5,6,,
{24}
4x,3,2,1,8,7,6x/3x,2,1,8,7,6,
{24}
3,4,3,
{16}
5,2,
{24}
6,5,6,
{16}
4,7,
{16}
2,2,4,3,7,7,5,6,
{16}
2,5,
{24}
3,4,3,
{16}
7,4,
{24}
6,5,6,
{16}
3,5,4,4,5,3,6,6,
{24}
1,8,1,8,1,8,2,7,2,7,2,7,
{24}
3,6,3,6,3,6,4,5,4,5,4,5,8,7,8,7,8,7,1,6,1,6,1,6,
{24}
2,5,2,5,2,5,3,4,3,4,3,4,1,5,2,6,3,7,1,5,2,6,3,7,
{24}
2,6,3,7,4,8,2-6[16:1],6,3,7,4,8,2b>8b[4:2],,,,,,
{4}
,
{4}
,,3h[4:3]/6p4[4:2],,
{4}
,,2q5[4:2]/7h[4:3],,
{4}
,,
{16}
4,5,4,5,4,5,4,5,
{16}
3,6,3,6,3,6,3,6,2,7,2,7,2,7,2,7,
{24}
1,8,1,8,1,8,
{32}
1,2,3,4,5,6,7,8,
{8}
1b-5[8:1],4h[8:1],1-3[12:1],6h[8:1],1-5[8:1],4h[8:1],1,8,
{8}
7-3[8:1],2h[8:1],7-5[12:1],4h[8:1],7-3[8:1],3-7[8:1],7,,
{8}
1>4[8:1],,5<8[8:1]/1,6,5-2[8:1]/4,,57,8,
{16}
2,1,4,5,8,7,4,5,1,8,5,6,1,8,3,4,
{4}
2>4[12:1],2-5[10:1]/5,
{16}
2-6[8:1]/6,,,7,2,,8,,
{8}
7<5[12:1],5,
{16}
7-4[10:1],,4,4,7-3[8:1],,3h[16:1],,7,,2h[16:1],,
{24}
1-5[8:1]/6h[8:1],2,3,,,,1,,,7h[8:1],,,2h[8:1],,,8b,7,6,3h[8:1],,,8b,7,6,
{24}
4h[8:1],,,1b,8,7,5h[8:1],,,1b,8b,7b,
{4}
6bh[4:1]/2bqq5[16:3],,
{16}
7b,5,6,4b,6,5,6,4b,6,4b,6,5,7b,5,6,4b,6,5,7b,5,6,5,7b,5,8b-4[12:1],5,7,4,8b,,,,
{16}
2b,4,3,5b,3,4,3,5b,3,5b,3,4,2b,4,3,5b,3,4,2b,4,3,4,2b,4,1b-5[12:1],4,2,5,1b,,,,
{16}
7b,5,6,2b,4,3,5,2b,4,2b,5,3,7b,5,6,2b,4,3,7b,5,6,4,8b,5,7b-3[12:1],3,6,4,7b,,,,
{16}
2b,4,3,7b,5,6,4,7b,5,7b,4,6,2b,4,3,7b,5,6,2b,4,3,5,1b,4,2b-6[12:1],6,3,5,2b,,,,
{24}
1b,8,1,8,2,7,3b,4,3,4,2,5,4b,5,4,5,3,6,5b,6,5,6,4,7,
{32}
1xb,2,3,4,5/1xb,8,7,6,5/1xb,2,3,4,5/1xb,8,7,6,
{32}
5/1xb,2,3,4,5,6,7,8,1xb/5xb,62,73,84,1,2,3,4,
{4}
5b/1bw5b[4:2],,,,8bw4b[4:2],,,,
{1}
3b>5b[4:7]/6b<4b[4:7],
