&title=COSMIC SYMPHONY
&artist=OSTER project
&first=0.01
&des=我要当太空人
&des_5=我要当太空人
&lv_5=14
&inote_5=(280){4},,,,,,,,{2}4,
{4}6,4,
{8},,,5,{4}3,5,
{2}3h[2:1],{24}7,6,{12}5h[12:5],,{4}2,
1-3[16:3],4-7[16:3],,2-4[16:3],
{2}6-1[16:3],{4}5-3[16:3],1-6[16:3],
,2-8[16:3],{2}4-7[16:3],
{4}2h[4:1],8,6,4h[4:1],
8,6,3h[4:1],8,
6,{12}2,3,4,7,6,5,1,2,3,
{4}4b/8b,{8}7,5,{4}6,{8}2,4,
,1,{4}7,8/2,8/2,
3/7,{8}6,4,,7,{4}1,
2-4[16:3]/6-8[16:3],6/2,,7-4[16:3]/3-8[16:3],
{2}3/7,{4}1q5[16:3]/5q1[16:3],1/5,
,5/7<4[4:1],3,1,
{12}8,7,6,5,4,3,2,1,8,7,,,{4}5,
{8}4,4,7,7,1,1,
{4}4,2/6,{8}3,3,8,8,
{4}4,{8}7,5,{4}6,{8}2,4,
,1,{4}7,{12}2,3,4,8,7,6,
{8}2,2,{4}4,5b<8[16:3]/1b>4[16:3],5b/1b,
,,,,,,,,,,,,4/5,
,,5,
{2}4h[2:1],7h[4:3],
{4},5,{2}6h[2:1],
{4}4h[4:3],,,5,
{2}3h[2:1],2>7[4:3],
{4}1,1,,,5/7,
,,4,
{2}6h[4:1],7/8>3[2:1],
{4},6,{2}4h[4:1],
{4}2/1p5[2:1],,,4,
{2}6h[4:1],{4}8/7,1/6,
,2,{8}7,7,{4}5,
{8}3b,4,1,4,2,4,3,5,
1,5,4,5,3,6,8,6,
5,6,2,7,4,7,6,7,
1,8,2,8,4,8,5,7,
3,5,1,3,2,2,2,5,
5,5,4,7,5,6,2,4,
1b>6[8:3],,,6,,,{4}8>5[8:3],
{8},5,,,2,2>7[8:3],,,7,
,,8-4[6:1],,8/1,,,{4}3-5[16:3],
6<1[16:3],,4-2[16:3],
{2}8<5[16:3],{4}1,{8}3,5,
{4}3,6,{8}7,5,{4}7,
8/2,{8}3,5,{4}3,2/8,
{8}7,5,{4}7,4/2,{8}3,4,
{4}3,7/5,{8}6,5,{4}6,
{8}3b/4b,,,5/7,,,{4}2/1,
{8}3,8,4,7,{4}5h[4:1],6h[4:1],
8h[4:1],{12}7,,5,,6,,3,,4,
,2,,{4}5/1,{8}3,4,{4}3h[4:1],
{8}7,8,{4}7h[4:1],{8}5,6,3<8[2:1],4,
{4}2,,,5V31[2:1],
{12},,,7,,7,,7,,{4}8,
{8}6,5,{4}6h[4:1],{8}2,1,{4}2h[4:1],
{8}4,3,6>1[2:1],5,{2}7pp1[4:1],
{4},1/8,{8}7,5,6,2,
4,1,{4}8/7,{12}6,5,4,3<8[2:1],2,1,
{4}8,,,2/1,
{12}8,7,6,5<1[12:5],4,3,{2}2,
{12},,,7/2,3/6,5/4,,,,,,,{4}4/5,
3/5,5/1,2/4,
5/2,2/7,1/8,5/7,
2/4,{8}1,6,2,7,3,8,
{4}5b,{8}3,4,{4}3,{8}7,8,
{4}7,{8}3,4,{4}3,{8}7,8,
{4}7,{8}3,4,2,5,1,6h[8:11],
{4}8b,2,7,4,
5,3,{12}2,3,4,8,7,6,
1,2,3,7,6,5,3,4,5,8,7,6,
{4}5b/2b,{8}3,4,1>4[6:1],7,{4}1,
{8}6,5,8<5[6:1],2,{4}8,{8}3,4,
{4}1,2/6,8/7,3/1,
5/7,{8}5,7,2-5[8:1],4,{4}2,
{8}7,5,1-6[8:1],3,{4}1,{8}2,4,
{4}8q5[4:1],5,7,{8}1,1,
{16}3,2,1,8,7,6,{8}5,8,8,{4}2-5[8:1],
6-1[8:1],4,7-4[8:1],3-8[8:1],
5,1-5[16:5]/4z8[16:5],{8},,,,4,
7,5,6,8,7,2,5,
3,4,1,8,{4}2/7,6/5,
{8}3,4,{4}1b>6[8:3],{8},6bp2[4:1],,,{4}8,
{8}7,1,6,8,{4}5h[4:1],
{8}2,7,3,8,{4}4h[4:1],{8}6,5,
{4}7,8/4,7/3,6/2,
5/1,{8}4,3,6,5,{4}7h[4:1],
{8}5,6,3,4,{4}2h[4:1],{8}5,3,
{4}7,{12}2,1,2,1,2,1,2>6[3:1],,,{2}7b,
{8}8,1,{4}7<4[4:1],
3,1,2>5[4:1],6,
8,7/5,{8},2/4,,,{4}1/8qq1[8:7],
1,2,2,
3,3,4/8,5/6,
7/1,{8}2/4,2/4,,7/1,,,{4}6b/5h[4:3],
,,4h[4:3],
,,{2}2h[4:3],
{4},7,{8},5,,,3b/4h[8:3],
,,2,,,{4}5,
3,7,{8}2/8,,,6,
{4}5,7,{8}4,5,,3,
4,4<7[4:1],,,{4}2,{8}5,5>2[4:1],
,7,,,1,1<6[4:1],,3,
,,{4}4-1[4:1],{2}5,
{8}4,3,5,4,6,2,7,3,
5,4,7,1,8b,2,6,4,
7,1,5b,5,5,3,3,3,
{4}4b/6b,{8}7,5,8<5[8:1],5,{4}8,
{8}2,4,1-4[8:1],4,1,,,7,
{4}5,8/4,6/1,3/4,
2/8,{8}3,7,5>2[8:1],7,{4}5,
{8}6,1,4-7[8:1],1,4,,,2,
{4}8,5/7,4/2,8/1,
{16}7,6,{8}5-8[8:1],{16},,2,3,{4}4-1[8:1],{16}8,7,{8}6-1[8:1],
{16},,3,4,{4}5,8/2,6,
4,{16}7/1,6,5,4,,,2/1,3/8,7/4-1[4:1],5/6,,,,,,,,,,,{8}7,
8,{4}7,
1,2,5/3,6,
7,{12}1,8,1,8,1,8,1,8,1,
{4}8-5[8:1],4-1[8:1],6,2-5[8:1],
6-1[8:1],4,7-4[8:1],3-8[8:1],
5,{16}1b,2,{8}3-7[8:1],{16},,8b,7,{4}6<4[8:3],
{2}1b,{16}1/7,2,3,4,5,6,7,8,
6/1,2,3,4,5,6,7,8,1/5,2,3,4,5,6,7,8,
4/1,2,3,4,5pp6[16:5],6,7,8,{2}1/5,
{4}2/4,{8}6,5,{4}7,{8}2,1,
{4}3,{8}6,5,7,4,5,2,
4,1,{4}7,8b/2b,2b/8b,
7/5,{8}3,4,{4}2/5,{8}7,8,
{4}1/6,{8}3,4,2,2,8,8,
4,4,{16}7,6,5,4,3,2,1,8,7,6,5,4,
{1}1b/3bpp8[4:5],
{4},,5,{8}7,7,
{4}1,3,7,5,
{1}8b<1[4:17]/2bp8[4:17],
E
