&title=honeykill
&artist=黒皇帝
&first=0
&des=Kill&U
&clock_count=4
&lv_6=14+
&lv_7=藏
&inote_6=(146.5)
{1},
{4},
{2}4h[2:1],B7/B8,5h[2:1],B1/B2,4h[2:1],B7/B8,5h[2:1],B1/B2,4h[2:1],B7`B8,5h[2:1],B1`B2,3h[2:1],B7`B8,6h[2:1],B1`B2,
{2}2qq5[1:1],B6`B5,7pp4[1:1],B3`B4,3h[2:1],B7`B8,6pp2[1:1],
{4}2,3,
{2}4h[2:1],B1`B2,5h[2:1],
{4}B8`B7,
{16},,2,3,
{8}4h[2:1],,,,
{2}B1`B2,5h[2:1],
{4}B8`B7,
{8},
{16},36,,,,
{8}6,5,6,,3,4,3,,6,5,
{16}47,,,36,,
{32},25,,,,,14,
{2},
{12}B1,E2,B2,E3,B3,E4,
{2},
{12}B7,B6,B5,,,,
{6}3,5,4,6,5,7,3h[32:9],
{12},
{32},
{16}8h[2:1],,,B3,B4,B5,B6,,
{8},
{16},45,
{2},
{12}B5,E6,B6,E7,B7,E8,
{2},
{12}B3,B2,B1,,,
{32},
(220)
{4}2b-6[8:1]/6b,2/6-8[8:1],,3/7-3[8:1],3-1[8:1]/7,,2>5[8:1]/5,2/5-1[8:1],,4/7<4[8:1],4-8[8:1]/7,
{16}B4,C,B8,,
{4}2-6[8:1]/6,2/6-1[8:1],
{24}E7,B7,B8,,,,
{4}3/7-3[8:1],3-8[8:1]/7,,2-5[8:1]/5,2/5-1[8:1],,4/7-4[8:1],4-8[8:1]/7,,
{8}26,3,5<8[8:1],4,5,,1,,27,,36,,47,6,5,6,5>8[4:1],,57,,6,,
{16}1,2,3,4,
{8}5/6V84[4:1],,B5,,B3,,3V15[4:1],,B4,,B6,,36,27,18,18,
{16}1,8,1,8,
{8}1-4[8:1],,1-6[8:1],,5,,
{8}3b/7b,,6,4,5,,34,,2,,18,
{16}7,6,5<1[4:1]/1,,,,15,2,3,4,5-1[8:1],,
{8},,,7,56,
{16}4,5,4,5,4>8[4:1],,,,48,7,6,5,4-8[8:1],,4,,
{8}4x,,3,3,37,37,46,46,6,
{16}3,4,3,,3,,
{4}4-1[8:1]/6-1[8:1],46,
{16}1,28,37,46,5<1[4:1],,,,1,2,3,4,
{8}5-1[8:1],,,,
{4}28,37,46,5,35,4,37,
{8}28,
{24}B2/B8,C,B6/B4,
{8}A5,,46,,37,,1,,28,28,
{16}3,7,4,6,
{8}5,5,6,6,
{16}3s7[4:1],7s3[4:1],3h[32:1],7h[32:1],
{4},,,
{8}1b/5b,,3,4,3,,56,7,7,7,
{16}3,5,4,6,5,,5,,57,,5,,58,,5,,5b/1b,,,,{24}8,7,6,5,,,
{4}1b-4[8:1]/4b<6[8:1],1b/4b,
{8}7,7,
{16}6,5,6,,
{8}4,3,25,25,15,15,
{4}1>4[8:1]/5<8[8:1],1p5[8:1]/5p1[8:1],15,3b/7b,2b/6b,
{8}1b/5b,2b/6b,3bh[8:1]/7bh[8:1],,
{24}6h[12:1],4h[12:1],,,,,6h[12:1],4h[12:1],,,,,
{8}3h[8:1]/7h[8:1],,
{24}2h[12:1],8h[12:1],,,,,2h[12:1],8h[12:1],,,,,
{8}6h[8:1]/7h[8:1],,
{24}7h[12:1],6h[12:1],,,,,7h[12:1],6h[12:1],,,,,
{8}2h[8:1]/3h[8:1],,
{24}2h[12:1],3h[12:1],,,,,2h[12:1],3h[12:1],,,,,
{8}4xb/6xb,5,53,4,57,6,24,3,68,7,13,2,
{16}3,1,4,8,5,7,5,6,4,5,3,4,
{8}2b,,
{16}1b/5b,,1b/5b,2b/6b,
{8}3b-7[8:1]/7b-4[8:1],3b/7b,
{1}3bx/7bx,
{4},,7-3[2:1],B1,B5,,B1,B5,7-3[2:1],B1,B5,,B1,B5,7p3[2:1],A2,A1,
{8}8,8,87,56,34,18,
{4}2b-6[2:1]/6b,B8,B4,,B4,B8,2-6[2:1],B8,B4,,B4,B8,2-6<6[1:2],B8,B4,,B4,B8,,,,
{8}8,8,18,27,36,45,2b/7b,,3,6,,,45,3,6,2,
{16}5,6,7,8,
{8}15,5,4,3,2,,36,4,5,4,8,
{24}7,6,5,
{8}48,,2,,
{16}4,4,4<7[8:1]*>1[8:1],4,
{4}4,
{8},
{16}2x/6x,3x/5x,
{8}4x,,35,4,6,5,7,7,
{8}1h[8:1],3h[8:1],4h[8:1],2h[8:1],3,3,
{4}3b/7b,6,5,27,3,4,57,46,35,24,35,46,
{8}7b/5,7,78,7,73,7,7/2b,2,24,2,28,2,
{16}2,6,2,6,3,7,3,7,4,8,4,8,
{4}5-1[110#16:1],,5b,
{8}7-4[8:1],3-7[8:1],7,3,,5,6<2[4:1],,
{16}26,3,4,5,
{8}6-2[8:1],6x,6b,,
{16}2x,13,4x/8x,57,6x,,
{8},5/7-3[8:1],,17,,
{16}2-6[8:1],3,2,3,
{8}2,,
{16}7,8,1,2,5,6,7,8,
{8}5,5,4,4,3,3,2-6[8:1]/6,2/6-1[8:1],2,5,5v2[8:1]*v8[8:1],,5-1[8:1],,5,,
{16}8-4[8:1],2,8,2,8,,
{8},3,3,7-3[8:1],4-6[8:1],7,4,1x,1x,8,7,26,78,16,25,34,45,56,,
{16}65,4,3,2,1,,,,81,,,,82,3,4,5,
{4}6/7-3[8:1],7,
{8}4,4,
{16}6-2[8:1],5,6,5,6,,4,,,,14,83,
{4}7/2-6[8:1],
{8}25,5,5,5,
{16}8,6,1,7,
{8}2bq6[8:1],,2,8-4[8:1],,8,5-2[8:1],,5-8[8:1],,5,,3-7[8:1],7-1[8:1],3,6,6>3[8:1],,6/2-6[8:1],,2,,4,
{16}7,8,1,2,
{8},45,,36,27,1-5[8:1]/8-4[8:1],,18,,27,36,4/5h[2:1],4,3,2,1-5[8:1],,1<6[8:1],,1,
{16}4,3,
{8}2,7x/8x,2x/5x,3,4,5/6-2[8:1],,6,8>3[8:1]*<5[8:1],,8w4[8:1],,8,,26,,
{16}26,37,48,15,
{4}2-7[8:1]/6-3[8:1],26,
{8}2x/6x,2x/6x,1x/5x,3x/7x,2xb/6b,2xb/6b,2xb/6b,2xb/6b,
{24}3,4,5,6,7,8,
{8}1xb/5b,1xb/5b,1xb/5b,1xb/5b,
{24}6,7,8,1,2,3,
{8}4xb/5b,4xb/5b,4xb/5b,4xb/5b,
{24}3,2,1,84,73,62,
{4}5/1-5[8:1],
{8}1,
{16}7,7,
{8}1w5[8:1]b,2x/8x,
{32}1x,B1,Cf,B6/B5/B4,,,,,
{1},,
{4},,,
{2}5h[2:3],,,
{4}1h[2:3],,,3,,,5qq1[2:3],,,,,,3pp6[2:3],,,,,7,6<3[2:5]*q3[2:5],
{1},,
{4},,,
{4}4b/6b,B5,C,35,B4,C,47,E6,C,25,E4,C,5/7,B6,B8,24,B3,B1,45,B6,C,45,B3,C,65,A7,D8,43,A2,D2,75,A8,B8,42,A1,B1,
{4}4-8z4[4:9]b`5<4[4:9],,
{1},,
E
&inote_7=(146.5)
{1},
{4},
{2}4h[2:1],B7/B8,5h[2:1],B1/B2,4h[2:1],B7/B8,5h[2:1],B1/B2,4h[2:1],B7`B8,5h[2:1],B1`B2,3h[2:1],B7`B8,6h[2:1],B1`B2,
{2}2qq5[1:1],B6`B5,7pp4[1:1],B3`B4,3h[2:1],B7`B8,6pp2[1:1],
{4}2,3,
{2}4h[2:1],B1`B2,5h[2:1],
{4}B8`B7,
{16},,2,3,
{8}4h[2:1],,,,
{2}B1`B2,5h[2:1],
{4}B8`B7,
{8},
{16},36,,,,
{8}6,5,6,,3,4,3,,6,5,
{16}47,,,36,,
{32},25,,,,,14,
{2},
{12}B1,E2,B2,E3,B3,E4,
{2},
{12}B7,B6,B5,,,,
{6}3,5,4,6,5,7,3h[32:9],
{12},
{32},
{16}8h[2:1],,,B3,B4,B5,B6,,
{8},
{16},45,
{2},
{12}B5,E6,B6,E7,B7,E8,
{2},
{12}B3,B2,B1,,,
{32},
(220)
{4}2b-6[8:1]/6b,2/6-8[8:1],,3/7-3[8:1],3-1[8:1]/7,,2>5[8:1]/5,2/5-1[8:1],,4/7<4[8:1],4-8[8:1]/7,
{16}B4,C,B8,,
{4}2-6[8:1]/6,2/6-1[8:1],
{24}E7,B7,B8,,,,
{4}3/7-3[8:1],3-8[8:1]/7,,2-5[8:1]/5,2/5-1[8:1],,4/7-4[8:1],4-8[8:1]/7,,
{8}26,3,5<8[8:1],4,5,,1,,27,,36,,47,6,5,6,5>8[4:1],,57,,6,,
{16}1,2,3,4,
{8}5/6V84[4:1],,B5,,B3,,3V15[4:1],,B4,,B6,,36,27,18,18,
{16}1,8,1,8,
{8}1-4[8:1],,1-6[8:1],,5,,
{8}3b/7b,,6,4,5,,34,,2,,1`8,
{16}7,6,5<1[4:1]/1,,,,15,2,3,4,5-1[8:1],,
{8},,,7,56,
{16}4,5,4,5,4>8[4:1],,,,48,7,6,5,4-8[8:1],,4,,
{8}4x,,3,3,37,37,46,46,6,
{16}3,4,3,,3,,
{4}4-1[8:1]/6-1[8:1],46,
{16}1,28,37,46,5<1[4:1],,,,1,2,3,4,
{8}5-1[8:1],,,,
{4}28,37,46,5,35,4,37,
{8}28,
{24}B2/B8,C,B6/B4,
{8}A5,,46,,37,,1,,28,28,
{16}3,7,4,6,
{8}5,5,6,6,
{16}3s7[4:1],7s3[4:1],3h[32:1],7h[32:1],
{4},,,
{8}1b/5b,,3,4,3,,56,7,7,7,
{16}3,5,4,6,5,,5,,57,,5,,58,,5,,5b/1b,,,,{24}8,7,6,5,,,
{4}1b-4[8:1]/4b<6[8:1],1b/4b,
{8}7,7,
{16}6,5,6,,
{8}4,3,25,25,15,15,
{4}1>4[8:1]/5<8[8:1],1p5[8:1]/5p1[8:1],15,3b/7b,2b/6b,
{8}1b/5b,2b/6b,3bh[8:1]/7bh[8:1],,
{24}6,4,6,4,,,6x,4x,6x,4x,,,
{8}3h[8:1]/7h[8:1],,
{24}8,2,8,2,,,8x,2x,8x,2x,,,
{8}6h[8:1]/7h[8:1],,
{24}6,7,6,7,,,6x,7x,6x,7x,,,
{8}2h[8:1]/3h[8:1],,
{24}2,3,2,3,,,2x,3x,2x,3x,,,
{8}4xb/6xb,5,53,4,57,6,24,3,68,7,13,2,
{16}3,1,4,8,5,7,6x,5x,7x,4x,8x,3x,
{8}1xb,,3b/7b,
{16}3xb/7xb,4xb/8xb,
{8}1xb-6[8:1]/5xb-2[8:1],3xb/7xb,
{1}1xb/5xb,
{4},,7-3[2:1],B1,B5,,B1,B5,7-3[2:1],B1,B5,,B1,B5,7p3[2:1],A2,A1,
{8}8,8,87,56,34,18,
{4}2b-6[2:1]/6b,B8,B4,,B4,B8,2-6[2:1],B8,B4,,B4,B8,2-6<6[1:2],B8,B4,,B4,B8,,,,
{8}8,8,18,27,36,45,2b/7b,,3,6,,,45,3,6,2,
{16}5,6,7,8,
{8}15,5,4,3,2,,36,4,5,4,8,
{24}7,6,5,
{8}48,,2,,
{16}4,4,4<7[8:1]*>1[8:1],4,
{4}4,
{8},
{16}2x/6x,3x/5x,
{8}4x,,35,4,6,5,7,7,
{8}1h[8:1],3h[8:1],4h[8:1],2h[8:1],3,3,
{4}3b/7b,6,5,27,3,4,57,46,35,24,35,46,
{8}7b/5,7,78,7,73,7,7/2b,2,24,2,28,2,
{16}2,6,2,6,3,7,3,7,4,8,4,8,
{4}5-1[110#16:1],,5b,
{8}7-4[8:1],3-7[8:1],7,3,,5,6<2[4:1],,
{16}26,3,4,5,
{8}6-2[8:1],6x,6b,,
{16}2x,13,4x/8x,57,6x,,
{8},5/7-3[8:1],,17,,
{16}2-6[8:1],3,2,3,
{8}2,,
{16}7,8,1,2,5,6,7,8,
{8}5,5,4,4,3,3,2-6[8:1]/6,2/6-1[8:1],2,5,5v2[8:1]*v8[8:1],,5-1[8:1],,5,,
{16}8-4[8:1],2,8,2,8,,
{8},3,3,7-3[8:1],4-6[8:1],7,4,1x,1x,8,7,26,78,16,25,34,45,56,,
{16}65,4,3,2,1,,,,81,,,,82,3,4,5,
{4}6/7-3[8:1],7,
{8}4,4,
{16}6-2[8:1],5,6,5,6,,4,,,,14,83,
{4}7/2-6[8:1],
{8}25,5,5,5,
{16}8,6,1,7,
{8}2bq6[8:1],,2,8-4[8:1],,8,5-2[8:1],,5-8[8:1],,5,,3-7[8:1],7-1[8:1],3,6,6>3[8:1],,6/2-6[8:1],,2,,4,
{16}7,8,1,2,
{8},45,,36,27,1-5[8:1]/8-4[8:1],,18,,27,36,4/5h[2:1],4,3,2,1-5[8:1],,1<6[8:1],,1,
{16}4,3,
{8}2,7x/8x,2x/5x,3,4,5/6-2[8:1],,6,8>3[8:1]*<5[8:1],,8w4[8:1],,8,,26,,
{16}26,37,48,15,
{4}2-7[8:1]/6-3[8:1],26,
{8}2x/6x,2x/6x,1x/5x,3x/7x,2xb/6b,2xb/6b,2xb/6b,2xb/6b,
{24}3,4,5,6,7,8,
{8}1xb/5b,1xb/5b,1xb/5b,1xb/5b,
{24}6,7,8,1,2,3,
{8}4xb/5b,4xb/5b,4xb/5b,4xb/5b,
{24}3,2,1,84,73,62,
{4}5/1-5[8:1],
{8}1,
{16}7,7,
{8}1w5[8:1]b,28,
{32}1,B1,Cf,B6/B5/B4,,,,,
{1},,
{4},,,
{2}5h[2:3],,,
{4}1h[2:3],,,3,,,5qq1[2:3],,,,,,3pp6[2:3],,,,,7,6<3[2:5]*q3[2:5],
{1},,
{4},,,
{4}4b/6b,B5,C,35,B4,C,47,E6,C,25,E4,C,5/7,B6,B8,24,B3,B1,45,B6,C,45,B3,C,65,A7,D8,43,A2,D2,75,A8,B8,42,A1,B1,
{4}4/5<4[4:9],,
{1},8q4b[4:3],
E
