&title=Believe the Rainbow
&artist=Shoichiro Hirata feat.Sana
&first=1.01
&des=譜面+100号
&lv_5=13+
&inote_5=(133)
{4}3^6[4:1],6^1[4:1],1^4[4:1],4-8[4:3],,,,,7^4[4:1],4^1[4:1],1^6[4:1],6-2[4:3],,,,1b,
5-1[8:1]/4^7[8:1],,7-4[8:1]/1-4[8:1],,4-1[8:1],4-8[8:1],4-7[8:1],,7h[2:1]/1-5[8:1],,5-2[8:1],,8h[2:1],7^4[4:1],,,5h[4:11]/7-4[2:1],7,,,4-1[2:1],4,,,1-6[2:1],1,,,8^5[8:1]/4^1[8:1],8q4[8:1]/4q8[8:1],8^5[8:1]/4^1[8:1],,
{16}1-4[8:1],,,1-6[8:1],,,1-5[8:1],,,5-1[8:1],,,,,,,,,6^3[4:1]/2^7[4:1],,,,,,,,,,,,,,
8-4[4:1],,,7,,,6,,,5-1[4:1],,,4,,,,,,3>6[16:6],,3p6[16:4],,,,,,,,,,,,2-4[12:1],,,1-5[12:1],,,8-4[12:1],,,7-5[12:1],,,,,,,1-3[8:1]/8-4[8:1],,,,,,,,1-5[8:1]/8-6[8:1],,,,,,,,4>4[2:1],,,,,,,,,,,,,,,,5<4[2:1]/3q4[2:1],,,,,,,,,,,,,,,,6^1[12:1],,,3^8[12:1],,,5q2[12:1],,,,,,,,,,8w4[8:1],,,,,,,,4w8[8:1],,,,,,,,1^4[12:1]*^6[12:1],,,1w5[12:1],,,1,,,,,,,,,,1-4[8:1]*-6[8:1],,,,,,,,5-8[8:1]*-2[8:1],,,,,,,,1-6[8:1],,,,1-4[8:1],,,,7-3[8:1],,,,1,,,,6-8[8:1],,,,8v1[8:1],,,,1-3[8:1],,,,3,,,,8v5[8:1]/2v5[8:1],,,,,,,,7v4[8:1]/1v4[8:1],,,,,,,,8v5[8:1]/2v5[8:1],,,,,,,,7v4[8:1]/1v4[8:1],,,,,,,,6-8[12:1]*-3[12:1],,,,,,,,2-4[12:1]*-7[12:1],,,,,,,,5-7[12:1]*-2[12:1],,,,,,,,1-3[12:1]*-6[12:1],,,,,,,,5-1[8:1],,,,1-5[8:1],,,,7-3[8:1],,,,3-7[8:1],,,,7v6[8:1],,,,3v2[8:1],,,,7v8[8:1],,,,,,,,1V72[8:1]/3-6[8:1],,,,,,,,7-2[8:1]/5V36[8:1],,,,,,,,1V72[8:1]/3-6[8:1],,,,,,,,7-2[8:1]/5V36[8:1],,,,,,,,1b,,,,,,5b,,,,,,2b/6b,,5bx,,1bx,,2bx,,3bx,,4bx,,3bx,,,,2bx,,1bx,,4^7[8:1],,4^2[8:1],,4q8[8:1],,4-1[8:1],,4,,4,,,,,,1-6[8:1]/8-6[8:1],,,,1-3[8:1]/8-3[8:1],,,,1w5[8:1]*-5[8:1]/8,,,,,,,,
7-5[8:1],,8-4[8:1],,7>4[4:1],,8,,7,,,,,,,,1-5[8:1],,7-5[8:1],,1>5[4:1],,7,,1
,,,,,,,,
5-1[8:1]
,,,,5b<7[16:1]*<8[32:3]*<1[8:1]*<2[32:5]*<3[16:3]*<4[32:7],,,,,,,,,,,,4-8[8:1],,,,4b>5[32:7]*>6[16:3]*>7[32:5]*>8[8:1]*>1[32:3]*>2[16:1],,,,,,,,,,,,5-7[8:1]/1-3[8:1],,,,1-6[8:1]/5-2[8:1],,,,1-5[8:1]/5-1[8:1],,,,,,,,8w4[8:1],,,,,,,,5w1[8:1]/4w8[8:1],,,,,,,,6^1[8:1]/2,,7,,2-4[8:1]/6,,3,,6^1[8:1]/2,,7,,,,,,4b-6[16:1],,,,7b-3[16:1],,,,2b-8[16:1],,,,5b,,,,1-3[12:1],,1-7[12:1],,1-4[12:1],,1-6[12:1],,1-5[8:1],,,,,,,,5bs1[8:1]*s1[8:1],,,,,,,,4-8[12:1]*-8[12:1]/3,,,,,,,,6V42[4:1]/2V46[4:1],,,,6V82[4:1]/2V86[4:1],,,,,,,,,,,,7V53[4:1]/3V57[4:1],,,,7V13[4:1]/3V17[4:1],,,,,,,,,,,,1^4[8:1],,8^5[8:1],,1-5[8:1],,8-4[8:1],,1-3[8:1],,8-6[8:1],,1>8[4:1],,,,,,,,,,,,5-1[8:1],,,,5b<7[8:1]*<8[16:3]*<1[4:1]*<2[16:5]*<3[8:3]*<4[16:7],,,,,,,,,,,,,,,,,,,,1-4[8:1]/8-5[8:1],,,,18,,,,1-4[8:1]/8-5[8:1],,,,18,,,,7-5[12:1]/1,,,,
{32}7/E1,C,E5,,,,,,
{16}2-4[12:1]/8,,,,
{32}2/E1,C,E5,,,,,,
{16}8-5[12:1]/1,,,,
{32}8/E1,C,E5,,,,,,
{16}1-4[12:1]/8,,,,
{32}1/E1,C,E5,,,,,,
{16}6-4[8:1]/2,,2,,26,,2,,7-5[8:1]/2,,2,,72,,2,,8-4[8:1]/2,,2,,82,C,2,,7s3[2:1],,,,,,,,,,,,,,,,1-5[8:1],,,,,,,,4-8[4:7]*-8[4:7],,,,,,,,,,,,,,,,
{1},,,,,
{4}7h[4:1]/5>7[2:1],,6,5,4<2[2:1]/2h[4:1],,3,4,7h[4:1]/5>7[2:1],,6,
{8}5,5bw1[8:1],,,,,1w5[8:1],,,,6-1[8:1],4-8[8:1],6-4[8:1],4,6,1,,,1-4[8:1]/6-3[8:1],,1-6[8:1]/6^1[8:1],,1-5[8:1]/6-4[8:1],,,,8,8-4-8[4:1],2,2-6-2[4:1],A4,A2,,,3x-1[8:1],,5-7[8:1],,4-1^3b[16:3],,,,7-4[8:1],4^5-8[8:1],7,2-6[8:1],,2,8,7,2-5[8:1]/6,5^4-1[8:1],2,7-3[8:1],,7,1,2,3^1b[8:1]/8-4b[8:1],,3-5[8:1]/8,,7-1b[8:1]/3,,7^5[8:1]/4-8[8:1],,7-3[8:1]/4,,7/8-2-7-3-6-4-8[4:3],,,,,,8w4[16:24],,,,,,
