&title=ときめきポポロン♪
&artist=チマメ隊 「ご注文はうさぎですか?」より
&first=0.033
&des=只是想象了三小只蹦蹦跳跳的样子......
&lv_5=13
&inote_5=(170){4},{12},,,,,,,,,{6}1b/7b,
{12}4,3h[4:1],,,{6}8b,{12}5,4h[4:1],,,{6}8b,
{12}7,5,,5,4,2,8,5,7,1,
{4}4<7[3:1],2,3,4,
{4}5>2[3:1],7,6,5,
{4}2h[4:1],4h[4:1],5>2[8:1],,
{4}7h[4:1],5h[4:1],4<7[8:1],,
{4}1>4[8:1],6,8<5[8:1],3,
{4}4h[4:1],2h[4:1],{12}1h[6:1],,8,2,,,
{4}7h[4:1],5h[4:1],4<7[8:1],,
{4}2h[4:1],4h[4:1],5>2[8:1],,
{4}5pp7[16:3],3,4qq2[16:3],6,
{12}5,,,1,,2/8,{12},,7,5,,,
{4}4>1[8:1],6,8<5[8:1],,
{4}2-5[8:1],1,1-6[8:1],,
{4}4-8[8:1],5-1[8:1],{2}4>5[8:3],
{12},,,8,,8,3,4,2,6,5,7,
{12}1b,,4-2[8:1],3,,1b,,,5-1[8:1],4,,8b-4[8:1],
{12},,8<5[8:1],2,,8-4[8:1],3,,8,2h[4:1],,,
{12},,2,4,,4,5,,5,7,,1/8,
{12},,3/6,{4}3/6,{12}4,5,4,5,,,
{4}2qq3[4:3],5,,5,
{4}5<2[8:5],4,,4,
{4}3h[2:1],4,6h[2:1],5,
{12}4,,4,5,,5,4,,,3/6,,,
{4}7pp6[4:3],4,,{24}4,,,,4>5[8:5],,
{1},
{12}8p4[8:1],,8,2>5[8:1],,2,7p3[8:1],,7,1q5[8:1],,1,
{12}7<4[8:1],,7,2q6[8:1],,2,8,,8,1>8[16:5],,1,
{12}7h[4:1],,,,,,1/8,,5,4,,2/7,
{12},,1b/8b,1b/8b,,,2,4,2,7,5,7,
{6}3>1[8:1],{12}3,4,,,{6}6<8[8:1],{12}6,5,,,
{6}3>1[8:1],{12}3,4,,,{6}6<8[8:1],{12}6,5,,,
{4}3>8[4:1],8<5[4:1],5>2[4:1],2,
{6}5,{12}5pp7[6:1],1,,1,{4}5qq3[6:1],5,
{6}6>3[8:1],{12}6,2,,,{6}2<7[8:1],{12}2,6,,,
{6}6>3[8:1],{12}6,2,,,{6}2<7[8:1],{12}2,6
,,,
{4}6<1[4:1],1>4[4:1],4<7[4:1],7,
{4}1pp3[8:1]*qq7[8:1],,{12}2/8,,3,4,,,
{4}6-8-5[4:1],5-1[8:1],4,{12}2,,2,
{4}8<4[4:1],3,{12}2,,2,1,,,
{4}3<6[8:1]/8,7,7p3[8:1],4,
{4}2qq5[16:5],{12},,6,,,6,5,,5,
{4}8w4[8:1],8b,8w4[8:1],8b,
{4}1w5[8:1],1b,{12}7,5,6,2,4,3,
{12}8p4[8:1],,8,2,,,1q5[8:1],,1,7,,8,
{12},,3b/6b,3b/6b,,,7,5,7,2,4,2,
{6}6<8[8:1],{12}6,5,,,{6}3>1[8:1],{12}3,4,,,
{6}6<8[8:1],{12}6,5,,,{6}3>1[8:1],{12}3,4,,,
{4}6<1[4:1],1>4[4:1],4<7[4:1],7,
{6}4,{12}4qq2[6:1],8,,8,{4}4pp6[6:1],4,
{6}3<6[8:1],{12}3,7,,,{6}7>2[8:1],{12}7,3,,,
{6}3<6[8:1],{12}3,7,,,{6}7>2[8:1],{12}7,3,,,
{4}4>8[4:1],8<4[4:1],4>8[4:1],8<4[4:1],
{4}4,8,{12}1/7,,6,5,,,
{4}7s3[4:1]/4,2z6[4:1],,{12},,4h[3:1]/8h[3:1],
{4},,{12}2/6,,3,5<8[8:1],,,
{4}4>1[8:1],5-1[8:1],{12}4,,4,,,3h[3:1]/7h[3:1],
{4},{12},,3/7,,,5-7[8:1],6,,8,
{12},,4-8[8:1],5,,1-5[8:1],,,1>4[8:1],7,,1<6[8:1],
{12},,1qq4[8:3],,,1,,,5<4[8:3],,,5,
{4},,3/6,1/8,
{4}4qq4[8:3]/5pp5[8:3],,,,
{12}1/7,,2,2,5,4,6,,8-3[8:1]*-5[8:1],8,,8b,
E
