&title=にこぷり♡女子道
&artist=矢澤にこ(CV.徳井青空)
&first=0
&des=Merjoex
&lv_5=13
&inote_5=(200){4},,,,{8}6,
4z8[8:3],6,4,{2},{8}3,
5s1[8:3],3,5,{2},{8}6,
4<8[8:3],6,4,{4},2,
{8}1,7,1,7h[8:5],,4,3,2,
1,7<2[8:3],1,7,{2},{8}6,
6<3[8:3],3,3,{2},{8}7,
7,2,6/2h[8:3],,5,{4}5h[8:5],
{8}3,2,,{16}3,5,3,5,3,5,3,5,3,5,
{8}3bx,6,7,8,C,7,C,6,
C,5,C,6,C,7,{4}Cfh[4:1],
{8}6,5,4,3,C,2,C,1,
C,2,C,3,C,4,{4}Cfh[4:1],
{8}3,4,5,6h[8:3],4,3,2,7,
6/3,3/6,2,7h[8:3],1,1,{4}1,
{8}2/6,2/6,7,3h[8:3],8,8,{4}8,
4/7h[8:3],{8}3,2,,6,{16}4,5,4,5,
{4}4,3h[8:1]/6h[4:1],2h[4:1],{8}7,3h[4:1],
{4}6,5/2h[4:1],4h[4:1],{8}1,5h[4:1],
{4}2,3/6h[4:1],{8}3,4,5,6h[4:1],
,3,2,1,8,7,{4}6/2h[4:1],
{8}7,3,6h[4:1],2,1,7h[4:1],2,3h[4:1],
,6h[4:1],,2,3,4,5,6h[4:1],
4,3,{4}7h[4:1],{8}2,B8,3,B6,
{4}4h[4:1],5,{8}4/6h[4:1],3,{16}2,7,2,7,
{4}2,6pp5[4:1]/3qq4[4:1],{2},{8}3,
4,5,6,{4}3h[4:1],7h[4:1],
2h[4:1],{8}6,3,B6,2,E8,1h[8:3],
,6,{4}7h[4:1],{8}2,3,{4}4/6h[4:1],
E1f,B7,E6,3bx/Cf,
6bx/Cf,E3,E7,2bx/Cf,
7bx/Cf,E3,6bx,E4,
{8}5,4,5,4,5,{16}3,6,{4}3h[4:1],
7b,{8}2,6h[8:3],{4}3,{8}4,5,
{4}3b/6h[4:1],{8}2h[8:1],7h[8:3],{4}3,{8}1,8,
{4}7b/2h[4:1],{8}6,1h[4:1],{4}5,6/2h[4:1],
{8}7h[2:1],1,2,3,4,6,5,4,
{4}6/3h[4:1],{8}7,4h[4:1],{4}8,7/3h[4:1],
6h[4:1],{8}2,7h[8:3],E3,E4,E5,E6,
{4}E7f/E3f,{8}5,3h[4:1],{4}6,7/2h[4:1],
{8}6h[2:1],1,2,3,{16}4w8[4:3],5,4,5,{4}4b,
,,,C,
6bx/3bxV52[4:1],{8}7,7,{4}7h[4:1],2,
{8}6/3,3,5,2h[8:3],6,7,8,3,
7/3b,6,5,4,3/6,2,1,8,
{2}7b/3V52[4:1],{8}8,7,{4}6/3,
{8}4/5b,4,3/6,3,2/7,2,1/8,1,
{2}2/7b>7[2:1],{8}C,C,{4}C,
{8}8/1b,8,7/2,7,6/3,6,5/4,5,
{4}3b/6q8[2:1],{8}3,3,,B3,B3,B3,
{4}6b/3V52[4:1],{8}5,6,7,3,{4}3/6,
{8}2/5,2,6,3h[8:3],7,7,7,2,
3/6b,4,5,6,7/4b,8,1/7,2/7,
{2}3b/6q8[2:1],{8}1,2,{4}3,
{8}1/7b,1,2/6,2,3/5,3,4/6,4,
5bv3[4:1]*v7[4:1],{2},{8}B2,B6,3,
6b/3,2,7/2,1,1/8,8,2/7,7,
6h[4:1]/3bqq4[8:3],{4},{8}7,6,5,{16}3,6,3,6,
{4}3h[4:1],7h[4:1],{8}1,8/2,3/7,6/4,
{2}5h[4:1],{16}6,4,6,4,{8}6,3,
Cf,2,3,4,C,3,C,2,
C,1,C,2,C,3,{4}Cfh[4:1],
{8}2,3,4,5,C,6,C,7,
C,8,C,7,C,8bx,{4}2bx,
{8}6bx,5,4,3h[8:3],6,6,6,2,
7b,2b,6,3h[2:1],,5,6,7,
{4}2b/8h[4:1],{8}3,7h[4:1],{4}4,3/6h[4:1],
2xh[4:1],{8}5,3h[4:1],{4}6,7/4h[4:1],
{8}8b,{4},{8}3,3/7,{4},{8}6,
4,5/4,,3/6,{4}6h[8:1]/3h[8:1],7h[8:1]/2h[8:1],
{8}1h[8:1]/8h[8:1],{4},{8}2/7,2/7,{4},{8}6,
{16}3,5,{8}3,6,2,{4}2/7,{16}3,6,3,6,
{8}3b,7>4[8:3],7,7/2b,{2},{8}6b,
3>5[8:3],3,3/7b,{2},{8}2b,
6<3[8:3],6,6/4b,{4},7,
{8}2b,5pp8[8:3],5,3b/5,,2,2,2,
7b,4z8[8:3],4,6b/4,{2},{8}3b,
5s1[8:3],5,5/2b,{2},{8}5b,
3<3[8:5],3,6b/3,E4,E5,{4}E6f,
,{16}2,7,2,7,3,6,3,6,4,5,4,5,
{8}4bx,{4},{8}7bx/Cf,{4},2bx/Cf,
{8},8bx/1bx,7bx/2bx,6bx/3bx,{2}5bx/4bx,
