&title=Potlatch
&artist=cybermiso
&first=0.05
&des=nakura
&lv_5=14
&inote_5=(110)
{1},
{8}3h[4:1]/4pp6[4:1],,,,1h[4:1],,,,
{8}2/7h[4:1],,,{16}3,4,{8}5qq3[4:1],,,,
{8}4,5,3,3h[4:1],8,7,1,1h[4:1],3-6[8:1],4,3/7-2[8:1],8,4h[4:1]/7,,,,
{16}3,1,4-1[8:1],8,{8}5,6,{16}7-2[8:1],8,5,1,6,6,5,,
{8}4<3[4:1],,1q4[8:3],,,,5,6,7-1[12:1]/1-7[12:1],2/6,,,3-5[12:1]/5-3[12:1],2/6,,,
{8}7-5[8:1],7,4-7[16:2],4,8-4[8:1]*-3[8:1],,8,,
{8}1h[8:2]/2h[8:1],{16},{48}3,4,5,{8},2b/8b,{8}8h[8:2]/1h[8:1],{16},{48}2,3,4,{8},1b/7b,
{8}7h[8:2]/8h[8:1],{16},{48}1,2,3,{8},8b/6b,4h[8:1]/5h[8:1],{16},{48}3/6,2/7,1/8,{8},2-6[12:1]/7,
{8}3,4-8[12:1],5,6-3[12:1],7,8-5[12:1],1,2-7[12:1],
{16}3,3,3,3,1-4[8:1]*-6[8:1],,4V25[16:3]/6V85[16:3],,1b,,,,,,,,
{8}3/4,8,{16}5/6-4[12:1],3,3,3,6-1[10:1],2,2-5[10:1],2,6pp3[16:3],,,,
{4},{16}1-3[12:1],4,4,4,1-5[10:1],5,5V73[16:2],5,1,,,,
{16}8,8,1,1,2/7-5[12:1],4,4,4,7-4[10:1],3V52[16:2],3,3,7,,,,
{32}8,7,6,5,4,3,2,1,8,7,6,5,4,3,2,1,8/4,5,6,7,8,1,2,3,4,5,6,7,8,1,2,3,
{8}4b/8b,,{16}7-4[10:1],2,2,2,7-3[10:1],1,1-5[10:1],1,7/8,,1,,
{48}8,7,6,5,4,3,2,1,8,7,6,,{16}2-5[10:1],4,4,4,2-6[10:1],1,1V73[8:1],1,2,,,,
{8}5-8[10:1],3/7,{16}5-1[10:1],2,2,2,5-2[10:1],3V16[7:1],3,3,5,,,,
{32}8,1,2,3,4,5,6,7,8,1,2,3,4,5,6,7,8/4,3,2,1,8,7,6,5,4,3,2,1,8,7,6,5,
{8}4b/8b>3[10:1],,{16}8pp4[8:2]/7,5,5,5,8,6,6,6,{32}8z4[16:2],7,6,5,1,2,3,4,
{8},,{16}1<6[10:1]/2,3,3,3,1-5[10:1],4,4p6[8:1],,1,,4,,
{8}8b,,{16}2/6,4,4,4,3pp6[8:2]/5,7,7,7,3b,,,,
{32}8,1,2,3,4,5,6,7,8/3,4,5,6,7,8,1/5,4,3,2,1,8,7/2,3,4,5,6b/2b,,,,,,,,
{32}1-4[10:1]/7h[8:1],2,3,4,5,6,7,8,{8}1/5-3[12:1],7,5/8-3[10:1],1,5V36[32:5]/8,6,
{8}5/3V14[32:5],1,3/8V27[32:5],7,5p3[16:3]/8,3,2>7[6:1],1,
{8}2/8h[8:3],,{32}2q5[16:4],3,4,5,6,7,8,1,{8}2/6<2[8:1],5,6,3,
{16}1/7-5[16:1],,5/4,,7,1,8,,2-4[16:1]/1,,5,5,2/6,8,1,,
{4}2bq5[16:7]/7b-4[4:1],,,,
{4}6bq1[16:7]/3b-8[4:1],,,{16},2b-5[18:1]/7b-4[18:1],,,
{4}2bq3[2:1]/7bp6[2:1],,,,
{4}2bqq5[16:6]/7bpp4[16:6],,,{16},3b<3[16:29]/6b,,,
{8}3b,,7-2[12:1],,7,,5-8[12:1],,5,,4-7[12:1],,4,,{16}8,8,,,
{8}3h[384:1]/7h[384:1],2h[256:1]/6h[256:1],1h[192:1]/5h[192:1],8h[128:1]/4h[128:1],3h[86:1]/7h[96:1],2h[64:1]/6h[64:1],1h[48:1]/5h[48:1],8h[32:1]/4h[32:1],
{16}3b/7b,4/6,1,2/8,{24}3,4,2,{16}6,5/7,{16}2b/8b,3/7,4/6w2[16:1],2/5,,,6b,,
{8}7/8,5/6,3/4-8[12:1],1-6[12:1]/2,4b-7[12:1],1b-5[12:1],4b,1b,
{8}8b,3/4,1h[8:1],{16}6,6,5/7,,8h[8:1],,2,2,3/4,,
{8}1-5[12:1]/5-1[12:1],4-2[16:1]/8,,,4-8[12:1]/8-4[12:1],1/5-7[16:1],,,
{8}2/1,4/3,6/5-1[12:1],8-3[12:1]/7,5b,8b,{16}4,4,1b/7b,,
{16}2/6,2,1,3,8,4,7,5,6,6,8,7,1-6[8:1],6,2,5,
{8}3b-8[8:1],4,7b<2[7:1],6,1h[16:4],,{16}8,2,7,3,
{32}6,5,4,3,2,1,8,7,6h[8:1]/2,,,,7h,8h,1h,2h,5,4,3,2,1,8,7,6,5h[8:1]/1,,,,8h,1h,2h,3h,
{8}4/7,5/6,2/5,3/4,{32}1s5[16:3],8,1,8,1,8,1,8,1b,,,,,,,,
{4}2h[2:1]/7h[8:5],,,{16}3/6,3/6,4/5,,
{16}2-4[16:1],6,6,6,2V86[8:1],8,8,8,2qq5[16:3],4,4,4,2,,,,
{16}6h[8:1],4,3,2/8h[16:1],3,4,2/5,,{16}3h[8:1],5,6,7/1h[16:1],6,5,7/4,,
{16}1/2V84[16:3],3/7,,4/5,2/6p3[4:1],,7,,6,,1,,1h[8:1],,,,
{8}2h[8:1]/8h[8:1],,2/8,{32}3,7,4,6,{8}5h[8:1],,4/6,{32}3,7,2,8,
{8}1h[8:1],,2/8,{16}7,7,{24}3,4,2,6,5,7,{8}1-5[10:1],2/8,
{8}1/4-7[16:1],3,4/8-3[12:1],1,8/5-1[12:1],4,5/7,8h[4:1],
{32}1,2,3,4,5,6,7,8,1pp4[16:6]/5pp8[16:6],4,3,2,1,8,7,6,{8}5b/1b,,,,
{8}8h[8:2]/7h[8:1],{16},{48}6,5,4,{8},7b/1b,{8}1h[8:2]/8h[8:1],{16},{48}7,6,5,{8},8b/2b,
{8}2h[8:2]/1h[8:1],{16},{48}8,7,6,{8},1b/3b,5h[8:1]/4h[8:1],{16},{48}6/3,7/2,8/1,{8},2-6[12:1]/7,
{8}3,4-8[12:1],5,6-3[12:1],7,8-5[12:1],1,2-7[12:1],
{16}3,3,3,3,{32}3-7[12:1],4,5,6,7,8,1,2,3b/7w3[15:1]*-3[15:1],,,,,,7b,,
{4},,,
E
