&title=Viola Illyria
&artist=Kolaa
&first=0
&des=但是可乐真的很好喝
&lv_5=14
&des_5=但是可乐真的很好喝
&inote_5=
(162){4},{8},,,,5,4,
{2}3h[2:1],4h[2:1],
5h[2:1],{8}6,5,4,3,
{2}2h[2:1],5p3[4:3],
{8},,,,,,4,5,
{2}6h[2:1],5h[2:1],
4h[2:1],{8}3,4,5,6,
{1}7pp4[4:3],
{2}B3,{4}B1,{8}4,5,
6h[2:1],,,5,5h[2:1],,,4,
4h[2:1],,,3,3,4,5,6,
{2}7h[2:1],4q6[8:5],
{8},,,,,6,5,4,
3h[2:1],,,4,4h[2:1],,,5,
5,4,3,5,{4}2h[4:1],4<2[2:3],
{1}1>6b[4:5],
{4},,,,3bh[2:1]/B8f,
B6,{2}B4,
{4}7/2h[2:1],5,{8}3-6[8:1],3,{4}3/2,
2/7h[2:1],4,{8}6h[8:1],8h[8:1],5h[8:1],7h[8:1],
4,4/6,{4}6/4,4/6-2[8:1],6b,
3>7[4:1],7pp1[16:3],5,6h[8:1],
5<7[8:1],5/3,{8}2/8,2,{4}6h[8:1]/3h[8:1],
4-8[8:1]/7-4[8:1],7/4,5xh[8:1],{8}1,2,
3/4,5h[8:1]/4h[8:1],{16},5xh[8:1]/6xh[8:1],,,{8}7/4-1[8:1],4/7,{4}4/7,
1x/6h[8:1],1/6h[8:1],6h[8:1]/2>5[8:1],2/6h[8:1],
7/4h[8:1],7/4h[8:1],3h[8:1]/7<4[8:1],7/3,
5/3h[8:1],5/3h[8:1],3h[8:1]/6-8[8:1],6/3h[8:1],
2/7h[8:1],2/7h[8:1],7h[8:1]/3-8[8:1],3b/7h[8:1],
{8}1xh[8:1],{16}5,5,{8}2h[8:1],{16}6,6,{8}3h[8:1],{16}7-1[8:1],7,{4}4h[8:1],
{8},5,4/1xh[8:1],3,{4}2/8xh[8:1],7h[8:1],
{8}4/6h[8:1],4,5/3h[8:1],5,2/4h[8:1],2,1/5,1/5,
{48}5bh/1bh,2xpp8[24:11]/6xpp4[24:11],3x/7x,4x/8x,{4},,,{16},,{24},{4}6b/2b,
{8}3/4h[8:1],1h[8:1],5h[4:1],2,{4}2>5[8:1],
{8}2b,6,6/4,6,{16}4-8[8:1],5,{8}3h[16:1],{4}4b/2,
{8}1h[4:1],8,8,8,8/3,4/8,5/8-6[8:1],8/6-1[8:1],
{16},,,,5,4,3,2,8-4[8:1],7,6,5,{4}8b,
6x<1[8:1],{8}2,3,{4}4p8[8:1],{8}7,6,
5/1,3,{16}6,4,6,4,7V51[4:1],3,8,2,{4}7b,
2x-4[8:1],2-6[8:1]/7-1b[8:1],2/7-4[8:1],7/5x-1[8:1],
{8}5b/8,7,6/2,3,{16}4/8,7,6,5,{4}4h[8:1]/1<6[8:1],
1b-5[8:1],{8}1/7-4[8:1],8,7/2,{16}3,3,{4}5bx-1[8:1],
5/2-6[8:1],{8}2/7-4[8:1],8,7/1-5[8:1],{16}2,2,{8}1/7b,6,
3/8h[8:1],3,4/6,7<4[8:1],8/3>8[8:1],7x,{4}3b,
{8}6h[8:1],{16}8,7,2,5,1,6,{24}2-6[8:1],3,4,8,7,6,{4}Cf,
{8}7xs3b[16:3],7x,,,1xs5b[16:3],1x,,,7>1-3<5[4:1],
7,,,1-7<5-3[4:1],1,,A6f,
,,{4}6s2b[4:1]/1z5[4:1],,,{1}Ch[1:1],
{8},,,7,7qq8[8:3],,,3,
{2}3qq4b[8:3],{8}7,6,5,4,
3h[4:1],{16},,,,B2,B1,{4}B8,{16}B6,B5,{8}B4,
{16},,3,4,{4}2pp4[4:1],4>8[4:1],{8}6,6,
7h[4:1],,,1,1pp8[8:3],,,5,
{4}5pp4b[8:3],{8}1,2,{4}3h[4:1],5h[4:1],
{2}2v3-5[4:1],{4}7h[4:1],B4h[4:1]/E4h[16:5]/E5h[8:3],
{16},,,,8,8,2,7,3-7[8:1],6,4,5,{4}3b,
{16}6,8,6,8,{4}6,{16}3,1,3,1,{4}3,
{8}6h[8:1],{16}5,5,{8}7,6/4,{16}3,5,4,5,{4}2b,
{16}3,1,3,1,{4}3,{16}6,8,6,8,{4}6,
{8}3h[8:1],{16}4,4,{8}2,3/5,{16}6,4,5,4,{4}7b,
{16}7<4[8:1],8,6,8,{4}7,{16}2>5[8:1],1,3,1,{4}2,
{16}7<4[8:1],8,7,8,{4}7,{16}2>5[8:1],1,2,1,{4}2,
{16}6h[64:1],5,{8}6,{16}3h[64:1],4,{8}3,{16}6h[64:1],5,{8}7h[64:1],{16}3h[64:1],4,{8}2h[64:1],
{16}6h[64:1],5h[64:1],8h[64:1],3h[64:1],4h[64:1],1h[64:1],7h[48:1],6h[48:1],{4}8q4[8:1]*v3[8:1],8b<1b[8:29],
{1}Ch[1:2],
,,{4},,,{8},{16}5/1,
5/1,
1x/5x,2x/6x,3x/7x,4x/8x,{4}1x/5x>8[16:3],{48}5b/A1f,D1,A8,D8,A7,D7,{8}A6,{4}4x<1b[16:3],
{48}4b/A8f,D1,A1,D2,A2,D3,{8}A3,{4}5xw1[8:1],Cf,{8}7x-4[8:1]/3x-8[8:1],7x/3x,
{4}3b/7b,{8}1/5,{16}3,4,{8}2,1/7,{16}6,4,{8}5h[8:1],
2x,{16}4/6,4,{8}7,3/5,2/8,{16}6,6,{32}4b-8b[8:1],3,2,1,8,7,6,5,
{16}4b,,,7,{8}1/7<4[8:1],8,7/2,{16}1,1,{8}5,{16}3,4,
2>5[8:1],,,6,{8}2,7,{4}8<5[8:1]/4>1[8:1],8/4,
{16}5b/1b,2/6,3/7,4/8,{4}1-6[8:1]/5V38b[16:3],5/1,{8}5,7/1,
3/4,6/2<4[4:1],{24}5b,4x,3x,2x,,,{2}Cfh[4:1],
{8}5h[16:1]/1bx<6[8:1],5h[16:1],1/5h[16:1],5h[16:1],5h[16:1]/7b-3b[8:1],5h[16:1],7/5h[16:1],5h[16:1],
{16}E3f/B2,,,E7f/B6,,,{8}E1f/B8,{16},E5f/B4,,,{4}1x-5[8:1],
{8}1b/7,8,{16}3,4,2,8,1,7,5,6,{8}4-2[8:1],8/2-5[8:1],
4,8,{16}8,7,6,5,4/2,1,8,7,{4}6/5b-1b[8:1],
{8}5x/2x,3x,{16}6,5,7,1,8,2,4,3,{8}5-3[8:1],7/1,
5,{16}6,6,1,2,3,4,5/7,8,1,2,{4}3/4b-8[8:1],
{8}4x/7x-3[8:1],7,6,5,4-8[8:1],4,3,2,
1-5[8:1],1,8,7,6,6,{16}1/5-1b[8:1],2,3,4,
{8}5x/7x-3b[8:1],7,8,1,2-6b[8:1],2,3,4,
5-1b[8:1],5,6,7b,8/2>5[8:1],5<8b[8:1],{4}2b/8b,
{1}Ch[1:4],
{4},,,,,,,,,,,B7,
{8}B1,,,B6,B4,,,B2,
E7,E6,E5,E4,{4}E3/B2/D3,B6/E7/D7,
{1}8x<1b[4:7],
,8x<1[8:15],
{8},,,,,,,,,6,
,,{2}3,
{16}6,,,3,,,,,,,{8}5,{16},4,,,3,
,,4,,,{8}5,{16},6h[16:5],,,,,{8}3h[8:5],
{4},,{48}8bV64V28>8b[16:45]`B8f,C,B4,A4,
E
