&title=[耐]Freak Out Hr.
&artist=ι›„δΉ‹εŠ© feat. POPY & ROSE
&first=0.03
&des=SuzuRin
&clock_count=4
&cabinet=DX
&des_7=
&lv_7=13?
&inote_7=(180){4},,,,{1}2h[4:3]/6h[4:3],
3h[4:3]/7h[4:3],
2h[4:3]/6h[4:3],
{4}2/4,3/5,5/7,4/6,
{1}3h[4:3]/7-3-5[2:1],
6h[4:3]/2-6-4[2:1],
{4}3/7,5/6,2/6,3/4,
2/4,5/7,1/8,2b/6b,
5h[4:29]/1-3[8:1],1,1-7[8:1],1,
1-3[8:1],1,1-7[8:1],1,
1-3[8:1],1,1-7[8:1],1,
1-3[8:1],1,1-7[8:1],1,
1-3[8:1],1,1-7[8:1],1,
1-3[8:1],1,1-7[8:1],1,
1-3[8:1],1,1-7[8:1],1,
1-3[8:1],1,6/4,7/3,
4h[4:29]/8-6[8:1],8,8-2[8:1],8,
8-6[8:1],8,8-2[8:1],8,
8-6[8:1],8,8-2[8:1],8,
8-6[8:1],8,8-2[8:1],8,
8-6[8:1],8,8-2[8:1],8,
8-6[8:1],8,8-2[8:1],8,
8-6[8:1],8,8-2[8:1],8,
8-6[8:1],8,3/5,2/6,
5h[4:29]/1-3[8:1],1,1-7[8:1],1,
1-3[8:1],1,1-7[8:1],1,
1-3[8:1],1,1-7[8:1],1,
1-3[8:1],1,1-7[8:1],1,
1-3[8:1],1,1-7[8:1],1,
1-3[8:1],1,1-7[8:1],1,
1-3[8:1],1,1-7[8:1],1,
1-3[8:1],1,4,6,
5/8-6[8:1],4/8-2[8:1],4/8-6[8:1],4/8-2[8:1],
4/8-6[8:1],4/8-2[8:1],4/8-6[8:1],4/8-2[8:1],
4/8-6[8:1],4/8-2[8:1],4/8-6[8:1],4/8-2[8:1],
4/8-6[8:1],4/8-2[8:1],{2}4/8,
{4}4/1-3[8:1],5/1-7[8:1],5/1-3[8:1],5/1-7[8:1],
5/1-3[8:1],5/1-7[8:1],5/1-3[8:1],5/1-7[8:1],
5/1-3[8:1],5/1-7[8:1],5/1-3[8:1],5/1-7[8:1],
5/1-3[8:1],5/1-7[8:1],{2}5/1,
{4}3x/8bx-6[8:1],4bx/8bx-2[8:1],4bx/8bx-6[8:1],4bx/8bx-2[8:1],
4bx/8bx-6[8:1],4bx/8bx-2[8:1],{2}8bx/4bx,
{4}4h[4:7]/8-6[8:1],8,8-2[8:1],8,
8-6[8:1],8,8,7,
6x/1bx-3[8:1],5bx/1bx-7[8:1],5bx/1bx-3[8:1],5bx/1bx-7[8:1],
5bx/1bx-3[8:1],5bx/1bx-7[8:1],{2}1bx/5bx,
{4}5h[4:7]/1-3[8:1],1,1-7[8:1],1,
1-3[8:1],1,1,2,
{2}3h[4:1]/7h[4:1],{12}7x-4[8:1]/8x-5[8:1],7x/8x,{3}7x/8x,
{12}1x-4[8:1]/2x-5[8:1],1x/2x,{6}1x/2x,{12},,{4}7/8,5h[4:1]/6h[4:1],
{12},,4/7,4/7<5[8:1],,,{4}7/1>3[8:1],1/8v5[8:1],
8/4v1[8:1],4/6-3[8:1],6/2-6[8:1],2/5,
{2}4h[4:1]/8h[4:1],{12}5xq1[8:1]/7x-3[8:1],5x/7x,{3}5x/7x,
{12}2x-6[8:1]/4xp8[8:1],2x/4x,{6}2x/4x,{12},,{4}5/7,2h[4:1]/4h[4:1],
{12},,1/5,1/5,,3/4,{4}3/4,{12}5/6,,4>1[8:1]/7<4[8:1],
,,{6}4/7,{12},2/5,,,4b/7b,4b/7b,,,{4}4h[4:29]/8-6[8:1],
8,8-2[8:1],8,
8-6[8:1],8,8-2[8:1],8,
8-6[8:1],8,8-2[8:1],8,
8-6[8:1],8,8-2[8:1],8,
8-6[8:1],8,8-2[8:1],8,
8-6[8:1],8,8-2[8:1],8,
8-6[8:1],8,8-2[8:1],8,
8-6[8:1],8,3/5,2/4,
,,,,,,,,{1}4h[2:3]/2-5v3[4:3],
,5h[12:17]/7-4p6[4:3],
{4},,,,3/5,
4h[2:1]/2>5[4:1],,,5/6,
4/5,3/4,3/4,
4/6,5h[2:1]/7<4[4:1],,,3/4,
1/2,7/8,5/6,
{1}4h[1:1]/7<3pp1[1:1],
{4},,1/8,1/8,
{1}5h[1:1]/2>8z4[4:3],
{12},,,,,3h[3:1]/6h[3:1],,,,,,,{4}3/4,
2/4,1/2,1/8,
1/8,7/8,5/7,5/6,
4/3-1[8:1],3/5,5/6-8[8:1],6/4pp1[2:1],
,,,1x/8x,
3/8-6[8:1],4/8-2[8:1],4/8-6[8:1],4/8-2[8:1],
4/8-6[8:1],4/8-2[8:1],4/8-6[8:1],4/8-2[8:1],
4/8-6[8:1],4/8-2[8:1],4/8-6[8:1],4/8-2[8:1],
4/8-6[8:1],4/8-2[8:1],{2}4/8,
{4}4/1-3[8:1],5/1-7[8:1],5/1-3[8:1],5/1-7[8:1],
5/1-3[8:1],5/1-7[8:1],5/1-3[8:1],5/1-7[8:1],
5/1-3[8:1],5/1-7[8:1],5/1-3[8:1],5/1-7[8:1],
5/1-3[8:1],5/1-7[8:1],{2}5/1,
{4}3x/8bx-6[8:1],4bx/8bx-2[8:1],4bx/8bx-6[8:1],4bx/8bx-2[8:1],
4bx/8bx-6[8:1],4bx/8bx-2[8:1],{2}8bx/4bx,
{4}4h[4:7]/8-6[8:1],8,8-2[8:1],8,
8-6[8:1],8,8,7,
6x/1bx-3[8:1],5bx/1bx-7[8:1],5bx/1bx-3[8:1],5bx/1bx-7[8:1],
5bx/1bx-3[8:1],5bx/1bx-7[8:1],{2}1bx/5bx,
{4}5h[4:7]/1-3[8:1],1,1-7[8:1],1,
1-3[8:1],1,1,2,
4h[4:29]/8-6[8:1],8,8-2[8:1],8,
8-6[8:1],8,8-2[8:1],8,
8-6[8:1],8,8-2[8:1],8,
8-6[8:1],8,8-2[8:1],8,
8-6[8:1],8,8-2[8:1],8,
8-6[8:1],8,8-2[8:1],8,
8-6[8:1],8,8-2[8:1],8,
8-6[8:1],8,3/5,2bxh[4:9]/6bxh[4:9],
E
