&title=MUSIC PЯAYER
&artist=A-One
&first=0
&des=B(@A@)D
&clock_count=4
&lv_6=14
&inote_6=(168)
{1},,
{8}2bpp5[2:1]/7b,,,6,6h[4:1],,,,
4qq1[2:1],,,7,7h[4:1],,,,
8qq3[2:1],,,4,4h[4:1],,,,
5pp1[2:1],,,2,2h[4:1],,,,
{8}3bpp6[2:1]/6b,,,7,7h[4:1],,,,
5qq2[2:1],,,8,8h[4:1],,,,
7pp4[2:1],,,3,3h[4:1],,,,
6pp2[8:3],,,4,4,,{32}E5,E6,E7,E8,E1,E2,E3,E4,
{8}8xb-4[8:1],,7/8,,1-5[8:1],,1/2,,
1>4[8:1],8,1/7,,8<5[8:1],1,8/2,,
3-8[8:1],4,3/5,,6-1[8:1],5,6/4,,
{16}2/8,,3,4,,6,5,,8,8,1,7,2,6,3,5,
{8}4b-8[8:1],,3/4,,5-1[8:1],,5/6,,
4q8[8:1],3,2/4,,5p1[8:1],6,5/7,,
8-4[8:1],1,2/8,,1-5[8:1],8,1/7,,
2b-7[8:1]/6b-3[8:1],,2b/6b,,1b/5b,3b/7b,,,
{16}6,5,6,2h[16:3],,,4,3,5,4,6,5,7,1,8,2,
6,4,5,3h[16:3],,,1,2,8,1,7,8,6,4,5,3,
8,2,7,1h[16:3],,,4,2,5,3,6,4,7,5,8,1,
4,3,4,2h[16:3],,,7,8,7,1h[16:3],,,E1,E8,E7,E6,
3,4,3,7h[16:3],,,5,6,4,5,3,4,2,8,1,7,
3,5,4,6h[16:3],,,8,7,1,8,2,1,3,5,4,6,
1,7,2,8h[16:3],,,5,7,4,6,3,5,2,4,1,8,
4,6,3,7,2,8,1,,3b/8b,,1b/6b,,2b/7b,,,,
{8}3h[4:1],1,6h[4:1],2,4h[4:1],1,5h[4:1],2,
3h[4:1],7,6h[4:1],8,4h[4:1],7,5h[4:1],8,
3,7/8,5,1/2,4,1/7,6,2/8,
{16}2,1,3,8,4,7,5,6,8,7,1,6,2,5,3,4,
{8}3h[4:1],5,7h[4:1],4,1h[4:1],8,8h[4:1],1,
2h[4:1],5,6h[4:1],4,3h[4:1],7,8h[4:1],1,
{16}2,,1/3,,6,,5/7,,3,2,1,8,7,6,4-2[8:1]/5-2[8:1],,
{8},4x-7[8:1]/5x-7[8:1],,4x-8[8:1]/5x-1[8:1],,4x/5x,,,
{8}2-5[8:1],7>6[16:5],2,7,,8,1,2,
7-4[8:1],3-8[8:1],7,3,5<8[8:1],1>4[8:1],5,1,
{16}6h[8:1],,3,4,2h[8:1],,6,5,7h[8:1],,1h[8:1],,3h[8:1],,5h[8:1],,
{4}6b-1[8:1],6/4b-7[8:1],4/2b-5[8:1],8/2b,
{8}7-3[8:1],2<4[4:1],7,2,,1,8,7,
2v5[8:1],5V38[4:1],2,6,7-3[8:1],6,7/1x,,
{4}2b-4[8:1]/8b-4[8:1],2b-6[8:1]/8b-6[8:1],2bv5[8:1]/8bv5[8:1],2b/8b,
{32}E2,E1,E8,E7,E6,E5,E4,E3,D2,D1,D8,D7,D6,D5,D4,D3,{16}D2/A1f/D1/E2/E1/B1,,,,,,,,
{4}7-2[8:1]/3-6[8:1],7/3,1<6[8:1]/5>2[8:1],1/5,
{8}5,6/4,3,4/2,7,8/6,1,8/2,
{4}7<5[32:3]/1>3[32:3],7v4[8:1]/1v4[8:1],7-5[32:3]/1-3[32:3],7/1,
1b-4b[8:1]*s5b[8:1],1b,8b-5b[8:1]*z4b[8:1],8b,
{4}2-7[8:1]/6-3[8:1],2/6,8>3[8:1]/4<7[8:1],8/40,
{8}4,3/5,2,1/8,7,6/5,4,3/5,
{4}6/2-6[8:1],2/7-3[8:1],7/1-4[8:1]*-6[8:1],1,
{16}3,7,3,6,2,5,2,4,1,8,1,8,2b/7b,,,,
{4}6-2[8:1]/3-6[8:1],6/3,5-1[8:1]/1-6[8:1],5/1,
{8}2,5/3,6,7/4,3,2/6,7,8/3,
{4}2-5[8:1]/1-5[8:1],2/1,8-4[8:1]/7-4[8:1],8/7,
1b-3b[32:3]/5b-7b[32:3],1b-7b[32:3]/5b-3b[32:3],1b-5b[8:1]/5b-1b[8:1],1b/5b,
3-8[8:1]/7-4[8:1],3/7,1>4[8:1]/5<8[8:1],1/5,
{8}5,4/6,3,2/5,6,7/3,2,1/6,
7>2[4:1],,2>5[4:1],,5-3v2-8b[2:1]*-8b[2:1],5,,,
{4},,7<4[8:1]/1>4[8:1],7b/1b,
{16}3,4,2,8h[16:3],,,5,7,4,6,3,5,2,4,1,8,
5,7,3,5h[16:3],,,8,6,1,7,2,8,3,1,4,6,
8,5,2,7h[16:3],,,1,8,2,4,3,5,4,6,5,7,
1,1,8,2h[16:3],,,6,6,5,7h[16:3],,,E1,E2,E3,E4,
6,5,7,1h[16:3],,,4,2,5,3,6,4,7,5,8,1,
4,2,6,4h[16:3],,,1,3,8,2,7,1,6,8,5,3,
1,4,7,2h[16:3],,,8,1,7,5,6,4,5,3,4,2,
8,8,4,4,6,6,2,,1b/4b,,3b/6b,,5b/8b,,,,
{8}7x/2x<7V13[2:1],,,6,6h[4:1],,,,
4/5V71<6[2:1],,,3,3h[4:1],,,,
5/2v5>8[2:1],,,7,7h[4:1],,,,
A6/B6/E6,,A3/D4/E4,,E5/B5/B4,,1,1,
8x/2x>5p1[2:1],,,7,7h[4:1],,,,
2/6q2<7[2:1],,,3,3h[4:1],,,,
6/4pp1>3[2:1],,,8,8h[4:1],,,,
{4}7<4[8:1]/4>1[8:1],7x/4xw8b[4:1],,,
{8}6/2>5[8:1],,7,8,1<6[8:1]/6,,5,3,
1V35[8:1]/5,,6,7,8V64[8:1]/4,,3,2,
{16}1h[8:1],,7,8,6h[8:1],,3,4,2h[8:1],,8h[8:1],,6h[8:1],,4h[8:1],,
{4}3b-8[8:1],3/5b-2[8:1],5/7b-4[8:1],7/1b,
{8}2-6[8:1],7>5[4:1],2,7,,8,1,2,
7-2[8:1],3-6[8:1],7,3,8<5[8:1],4>1[8:1],8,4,
{16}7h[8:1],,3,4,2h[8:1],,7,8,6h[8:1],,2h[8:1],,4h[8:1],,8h[8:1],,
{32}D6,D5,D4,D3,D2,D1,D8,D7,A5,A4,A3,A2,A1,A8,A7,A6,Cf,,,,,,,,,,,,,,,,
{4}1-6[8:1]/5-2[8:1],1/5,8>3[8:1]/4<7[8:1],8/4,
{8}4,3/5,6,5/7,2,1/3,8,1/7,
{4}2>4[32:3]/8<6[32:3],2v5[8:1]/8v5[8:1],2-4[32:3]/8-6[32:3],2/8,
7b-4b[8:1]*z3b[8:1],7b,2b-5b[8:1]*s6b[8:1],2b,
{4}8-3[8:1]/4-7[8:1],8/4,1<6[8:1]/5>2[8:1],1/5,
{8}5,6/4,3,2/1,8,7/5,4,3/5,
{4}6/2-6[8:1],2/7-3[8:1],7/1-4[8:1]*-6[8:1],1,
{16}3,7,5,7,2,7,4,7,1,8,1,8,2b/7b,,,,
{4}3-7[8:1]/6-3[8:1],3/6,4-8[8:1]/8-3[8:1],4/8,
{8}7,4/6,3,2/5,6,7/3,2,1/6,
{4}7-3[8:1]/8-4[8:1],7/8,1-5[8:1]/2-6[8:1],1/2,
8b<5b[8:1]/4b>1b[8:1],8b-3b[8:1]/4b-7b[8:1],8b-4b[8:1]/4b-8b[8:1],8b/4b,
6-1[8:1]/2-5[8:1],6/2,8<5[8:1]/4>1[8:1],8/4,
{8}4,5/3,6,7/4,3,2/6,7,8/3,
2-6[8:1],2,1-5[8:1],1,8-4[8:1],8,7,7,
{32}3,4,5,6,7,8,1,2,3,4,5,6,7,8,1,2,3v8[8:1]/7-4[8:1],,,,,,,,3b/7b,,,,,,,,
{16}2,1,2,3/8,,6,5,7,4,6,3,5,2,8,1,7,
4,6,4,3/5,,6,8,7,1,8,2,1,3,5,4,6,
1,7,1,2/8,,3,7,5,6,4,5,3,4,2,8,1,
6,6,5,7h[16:3],,,1,1,8,2h[16:3],,,8,7,6,5,
3,4,3,2/5,,1,7,5,6,4,5,3,8,2,7,1,
5,3,5,4/6,,3,1,2,8,1,7,8,6,4,5,3,
8,1,8,2/7,,6,2,4,3,5,4,6,5,7,1,8,
{16}2,2,4,4,5,5,7,,8b/4b,,2b/6b,,1b/5b,,7b/3b,,
{1}8h[8:24]/4-2[8:5]-5[8:5]-8[8:5]-6[8:5],,,
{1}7pp8[8:3]-5[8:2],,
E
