&title=Next to You
&artist=uma feat.橘花音
&first=-0.033
&des=colorful skin
&des_5=colorful skin
&lv_5=?
&inote_5=(165){4},,,,3V14[4:1]*pp4[4:1],
3,,6h[4:1],
C/B1/B2,4h[4:1],C/B8/B7,6h[4:1],
C/B1/B2,4h[4:1],C/B8/B7,5,
{32}1bw5[32:3],2/8,7/3,6/4,{8}5,{4}1b,{32}5h[4:1]/1h[4:1],,,,,,,,,2/6,3/7,4/8,,,,,{8}5/1-4[8:1],
3,6/1-6[8:1],7,{4}1,{16}2,4,3,4,
{8}2,{16}7,5,6,5,{8}7,{16}3,4,2,4,{8}3,{16}6,5,
7,5,{8}6,{16}3,4,3,2,{8}3,{16}6,5,6,7,{8}6,
{4}1h[4:1],{32}5,6,7,8,1,2,3,4,5,6,7,8,1,2,3,4,{4}5b-2[8:1]*-8[8:1],
5b,1b-6[8:1]*-4[8:1],1b,4bp8[8:1]/8bp4[8:1],
8b>3[8:1]/4b<7[8:1],4bp8[8:1]/8bp4[8:1],8b/4b,{16}5,6,7,8,
{8}1/2,5/4,{16}7/1,1/7,,8/3,{8}3/8,{16}6,5,,3,{8}4,
6/5,7/3,{16}8/2,8/2,,6/1,{8}6/1,{16}7,5,,3,4,3,
4,3,8,1,{8}8b,{16}6,5,6,5,{8}6b,2/1,7/8,
{16}2,3,{8}4bx/5bx,{16}8,7,{8}6bx/5bx,{16}2,3,{8}4bx/5bx,{16}6,5,{8}4bx/3bx,
8/7,4/5,{16}2/8,8/2,,1/6,{8}6/1,{16}3,4,,6,{8}5,
3/4,2/6,{16}1/7,1/7,,3/8,{8}3/8,{16}2,4,,6,5,6,
5,6,1,8,{8}1b,{16}3,4,3,4,{8}3b,7/8,2/1,
{16}3b,8b,3b,6b,1b,6b,8b,2b,4b,1b,7b,5b,{4}8b<6[8:1],
{8}8,3>1[8:1],4,3,{16}7h[2:1],,,8,,,{8}5,
{4}1>3[8:1],{8}1,{16}5,6,{8}7h[8:3],4,1,5,
{4}8<6[8:1],{8}8,4,{16}3,,,2h[16:3],,,{8}7,
{4}5-1[8:1]/6-8[8:1],6/5,{32}3b/7bh[8:1],4,5,6,,,,,6b/2bh[8:1],5,4,3,,,,,{8}7/8,
5<7[8:1],4,3,{16}2h[2:1],,,8,,,{8}5,
{4}1>3[8:1],{8}1,{16}6,6,{8}5-1[8:1]/4-8[8:1],6/3,{4}5/4,
{8}2>4[8:1],1,2/7<5[8:1],8,7/2,3,4,5,
{32}4b/1b,2,3,4,,,5b/8b,7,6,5,,,1b-6[8:1]/4b-1[8:1],2,3,4,,,,,{8}1/4,{16},,,,2,
4,2,4,3,5,3,5,{4}4>1[8:1],{8}4,8-2[8:1],
7,5/8-5[8:1],7,3/8-3[8:1],1,8/6,{16},,,,7,
5,7,5,6,4,6,4,{4}5<8[8:1],{8}5,1-7[8:1],
2,4/1-4[8:1],2,6/1-6[8:1],8,1/3,{32},,,,,,,,1bw5[8:1],
8/2,7/3,6/4,{8}5,{4}1b,{32}1b,8/2,7/3,6/4,{8}5w1[8:1],,5,
,6/3h[8:1],8,3/6h[8:1],1,5,,6/4,
3/5,{16}8,1,{8}8,3/5,6/4,{16}1,8,{8}1,2-5[8:1],
,2/7,8,2,{32}3h[4:1]/7h[4:1],,,,,,,,,2/6,1/5,8/4,,,,,{4}5b<8[8:1]*v8[8:1],
5b,5b>2[8:1]*v2[8:1],5b,
{8}7V53[8:1],3v6[8:1],1-5[8:1],2,1,7v4[8:1],8,7/1-3[8:1],
8,1/5-1[8:1],6,5,{4}4w8[8:1],4,
{8}3v6[8:1],6>4-1[8:1],8,7,6<8[8:1],5,6/2,1,
{32}8bw4[8:1],1/7,2/6,3/5,{8}4,{4}8b/B8f,{32}1bw5[8:1],8/2,7/3,6/4,{8}5,{4}1b/B1f,
{8}7-4[8:1],4V68[8:1],2>4[8:1],1,2,7V13[8:1],3v8[8:1],4>1[8:1],
5<8[8:1],4p8[8:1],5q1[8:1],4,5,,,6h[4:1]/5-1[8:1],
3,5,,3h[4:1]/4-8[8:1],6,4,,7/3,
{16}2,1,,3,{8}4,6/5,4/3,,,3h[4:1]/4<8[8:1],
6,4,,6h[4:1]/5>1[8:1],3,5,,2/6,
{16}7,8,,6,{8}5,3/4,{4}5/6,{32}1,2,3,4,8,7,6,5,
{8}4b/3b,7/1,{16}8/3,3/8,,1/6,{8}6/1,{16}2/5,5/2,,4/7,{8}7/4,
6s2[8:1]/5z1[8:1],7/4,{4}6/5,{8}8/3,{16}2/7,7/2,,3,5,3,
7,4,7,4,{8}7,{16}2,5,2,5,{8}2,7/3,6/2,
{16}8b-4[8:1],7,{8}6,{16}8b/1b-5[8:1],2,{8}3,{16}1b/8b-4[8:1],7,{8}6,{16}8b/1b,2,{8}3,
6/3,2/8,{16}1/6,6/1,,8/3,{8}3/8,{16}7/4,4/7,,5/2,{8}2/5,
3z7[8:1]/4s8[8:1],2/5,{4}3/4,{8}1/6,{16}7/2,2/7,,6,4,6,
2,5,2,5,{8}2,{16}7,4,7,4,{8}7,2/6,3/7,
{16}6b,5b,7b,3b,4b,2b,6b,5b,8b,3b,4b,1b,7<5[8:1],8,1,2,
{8}7/3<5[8:1],1,3/7<5[8:1],1,7/3<5[8:1],1,3/7-3[8:1],8-4[8:1],
7,8,{16}5,6,,6h[16:5],,,{8}8,5h[4:1],8,
6h[4:1],8,5h[4:1],8<4[8:1],6h[8:1],8,{16}8,8,,3h[16:7],
,,{8}7,1,7,2/6,1,7/3,8,
{16}8x/4x,7x/3x,6x/2x,5x/1x,,4x/8x,7x/3x,6x/2x,{32}5xh[4:1]/1xh[4:1],,,,,,,,,6bx/2bx,7bx/3bx,8bx/4bx,,,,,{16}1x/5x,
2x/6x,3x/7x,8x/4x,,1x/5x,2x/6x,3x/7x,{32}4xh[4:1]/8xh[4:1],,,,,,,,,3bx/7bx,2bx/6bx,1bx/5bx,,,,,{16}2,
6,2,6,,3,5,3,{8}6-2[8:1],2V84[16:3],{4}6,
{8},3,6,3h[8:3]/7h[8:3],{32},,,,,,,,,2/6,1/5,8/4,,,,,1b-5[8:1],
2/8,7/3,4/6,{8}5,{4}1pp4[4:9],{2}1x,
8h[4:1],7h[4:1],
6h[4:1],{4}5,5-1[8:1],
5,5-8[8:1]*-2[8:1],5,7/3,
{8}1/8-4[8:1],7,8/1-5[8:1],2,{4}1v3[8:1]/8v6[8:1],1/8,
7-5[8:1]/2-4[8:1],2/7-1[8:1],7-5[8:1]/3-1[8:1],3/7-1[8:1],
7-5[8:1]/2-4[8:1],7-1[8:1]/2-6[8:1],{8}2/7,,,8h[4:1]/2-6[8:1],
4,2,,1h[4:1]/7-3[8:1],5,7,,4/3,
{16}2,1,,3,{8}4,1/2,{32}5h[4:1]/6h[4:1],,,,,,,,,4/7,3/8,2/1,,,,,{8}5-3[8:1],
6,8/5-7[8:1],6,2/5-3[8:1],4,8/5-8[8:1],6,
2/5-2[8:1],4,{4}5/7V53[4:1],{8}7h[4:1],,,1V35[8:1],
5v2[8:1],7p3[8:1],8,7,1-5[8:1],2,1,6,
{32}1bw5[8:1]*-5[8:1],2/8,7/3,6/4,{8}5,{4}1b/B1f,{32}8bw4[8:1]*-4[8:1],7/1,2/6,3/5,{8}4,{4}8b/B8f,
{8}3v6[8:1],6V41[8:1],8<6[8:1],1,8,2p6[8:1],1,2v5[8:1],
7,2>4[8:1],6<8[8:1],2,6,,,4-1[8:1]/8v5[8:1],
7/3,8/4,,4v1[8:1]/8-5[8:1],7/3,8/4,,6/2,
{16}8,1,,7,{8}2,6/5,{4}8/1-5[8:1],{8}1,6,
7,4/8,,6/2,3/7,1/5,,6<8[8:1]/3>1[8:1],
{2}5/4,{32}1/8h[2:1],2,3,4,5,6,{16}7,{32}1,2,3,4,5,6,7,1,
{8}2b,6x/5x,{16}7/3,7/3,,4,{8}3,{16}1,2,,,{8}7/8,
1/2,7/3,{16}6/1,6/1,,7/4,{8}4/7,{16}5,2,,1,8,1,
6,2,6,2,{8}6,{16}3,7,3,7,{8}3,6/4,7/3,
{32}5bw1[8:1],6/4,7/3,8/2,{8}1,{4}5b/B5f,{32}4bw8[8:1],3/5,2/6,1/7,{8}8,{4}4b/B4f,
{8}6/2,7/8,{16}6/2,6/2,,1,{8}2,{16}4,3,,,{8}6/5,
4/3,6/2,{16}7/4,7/4,,6/1,{8}1/6,{16}8,3,,4,5,4,
7,3,7,3,{8}7,{16}2,6,2,6,{8}2,7/1,8/3,
{16}6b,4b,8b,3b,5b,1b,6b,4b,8bw4[8:1]*-4b[8:1],3b,5b,1b,{4}8b/B8f,
E
