&title=Customized Justice
&artist=Kobaryo
&first=0.033
&des=
&des_6=XY5643 vs。XY6783
&lv_6=14+
&inote_6=(292){4},{8},,,,,,,,,,,,,,B2,
B3,B4,B5,B6,B7,B8,B1,
E3,E4,E5,E6,E7,E8,E1,E2/C,
A2,A3,A4,A5,A6,A7,A8,A1,
D3,D4,D5,D6/Ch[8:3],{16},,,,,,,,1bx-6-8>1[2:3]*-4-2<1-5b[2:7],
8x/2x,7bx/3bx,4x/6x,{4}5bx,,,,,,,6xh[8:1],
6xh[2:1],,,{1}5xh[2:1],
{16}8bx-3-6-1-4-7-2-5[8:19],7x/1x,6x/2x,3bx/5bx,{4}4x,,,,,,,3h[8:1],
3h[4:1],{8},2h[8:1],,8h[4:1]/1h[4:1],
,,8/1,5h[8:1]/6h[8:1],,5/6,{4}4/7,
8b/1b,{8}1-5[8:1],2,{4}1b,8,
1/7,{8}8-4[8:1],7,{4}8b,1,
6/5,{8}3-8[8:1],4,{4}3b,1,
3/4,{8}6-1[8:1],5,{4}6b,8,
{8}8/2-5b[8:1],2,,,8/7-4b[8:1],7,,,5/6-1b[8:1],
6,,,4/3-8b[8:1],3,,,1,
1,7,7,2,2,6,6,
{16}3b,4,5,6,7,8,1,2,3,4,5,6,7,8,1,2,
{1}3-1-4-8-5-7>8>1>2>3<4<5b[4:7],
{8},,,,,,,,6,
3h[8:1],7,2h[8:1],{4}8h[4:1],{8}1,1,
{16}8bx,7x,6x/2bx,3x,4x/7bx,6x,{8}5x/3xh[8:1],{4}8w4b[8:1],D8/D1/A8f,
1-5[8:1],6,7/2-4[8:1],5,
7/1-5[8:1],6,7/2-4[8:1],{8}6,7,
{4}2/8-6[8:1],5,2/1-5[8:1],4,
2/8-6[8:1],5-3-6-1b[8:3],,,2/7-5[8:1],
4,2/8-4[8:1],3,
2/7-5[8:1],{8}3,2,{4}7/1-3[8:1],{8}7,6,
4,3h[8:1]/4h[8:1],,,5,6h[8:1]/5h[8:1],,,3,
2,8,7,{4}1w5[8:1],1b,
6xpp1[4:3],4x,2b,1x<5b[8:3],
3,2,1b/4x-7[8:1],8q3b[1:1],
8,6,4,3<1[8:7],
8,7,5-1b[8:1],5b,
{8}2,2,7,7,4,4,6,6,
3,3,8,8,{4}1-5[8:1]*-6b[8:1],1b,
{16}4,3,4,2bx,,,5,4,5,3bx,,,{4}6h[4:1],
{2}1pp5b[8:5],{8}8bx,7bx,{4}6bx,
{1}4x>6[4:13],
{2}8xh[4:1],8xh[4:1],
{1}6xh[2:1],
{2}5x-1b[0.411##0.1027],A5,
{8}2-4[8:1],2,6,6,1-5[8:1],1,6,6,
2-4[8:1],2,6,6,1-5[8:1],1,7,7,
8-6[8:1],8,3,3,1-5[8:1],1,4,4,
8-6[8:1],8,3,3,{4}4-8b[8:1],4b,
{2}5x<3[4:13],{4}3x,3x,
{2}2xh[4:1],1xh[4:1],
{4},3x,4x,4x,
{2}4x-8b[0.411##0.1027],4bx,
{8}7-5[8:1],7,2,2,8-4[8:1],8,3,3,
7-5[8:1],7,2,2,{4}8w4[8:1],8b,
{8}2x,2x,6x,3,7,7,1,8,
{16}1b,2,3,4,5,6,7,8,1,2,3,4,5,6,7,8,
{1}Cf/B6/B5/1qq3<7[1:3]*>7b[8:23],
,,{4},,{256}8-5b[16:1],
1-4[256:15],,,,,,,,,,,,,,,{16}E8/E2,B7/B2,B6/B3,{4}E6/E4,
6h[4:1],5,7/4,{8}5,6,
,6,{4}5,3/7-4[8:1],7,
3h[4:1],4,2/5,{8}4,3,
,3,{4}4,6/2h[4:1],{16}E3,B3,B4,E5,
(146){4}6pp2[8:5],{16}1/6-4b[8:1],2,3,4,{4}6b,{8}1,3,
{4}4qq8[8:5]/8-5b[8:1],{8}8b,2,{4}4,{8}7,6,
5h[4:1],B5,2h[4:1],B2,7h[4:1],B7,3h[4:1],B3,
7,7/3,6/2,5/1,{16}2,2,7,7,{8}8w4b[0.2055##0.1027],A8f,
(292){4}6h[8:3],{8}5,5,{4}4/7,{8}6>4[4:1],6,
,3,{4}3h[4:1],5,2bx/6bx,
7bx/3bxh[4:3],{8}4,4,{4}5,6-8-4[8:3],
{16},,1x,2x,3x,4bxh[16:5],,,{8}5bx,5bx,{4}3bx/6bx,
3h[8:3],{8}4,4,{4}6/2>5[4:1],{8}5,5h[4:1],
,,6,4,{4}4,3bx/5bx,
1bx/7bxh[4:1],8,{8}2bx/4bx,3bxh[8:1]/5bxh[8:1],,5bxh[8:1]/3bxh[8:1],
,2x/6x,1,7,{4}8-4[8:1],8b,
{2}5h[4:1],4/5h[4:1],
5h[4:1]/B2,3/5h[4:1],
5/4h[4:1],6/4h[4:1],
4h[4:1]/B7,5/4h[4:1],
{4}4/5h[4:1],3,6/3h[4:1],7,
7h[8:1]/3h[8:1],2h[8:1]/6h[8:1],1h[8:1]/5h[8:1],8h[8:1]/4h[8:1],
5/1pp5[8:5],6,{8}7,7-3b[8:1],{16},,B7/7bxpp3b[4:3]*qq3[4:3],C,
{1}B3,
5<4[16:41],
4h[2:1],
{4}8h[8:1],8h[2:1],,,{1}B6h[2:1]/Ch[16:9]/B3h[8:5]/E5h[16:11],
{2}4>5b[4:11],{4}5,5,
{2}8h[4:1],{4}7,7,
1bx,1bxh[4:1],{8},2bx,,2bx,
3,4,3,4,{4}3-8[8:1]*-1[8:1],3bx,
{8}7,8,7,8,{4}7-4[8:1],4b,
{8}2,1,2,2,{4}2-5[8:1],5b,
{8}8,8,8,8,{4}8-4b[8:1],4b,
{8}1b,1b,1b,1b,{4}1b-5b[8:1],1b,
{8}4bxh[8:1]/6bxh[8:1],,,4bxh[8:1]/7bxh[8:1],,,{4}3bxh[8:1]/6bxh[8:1],
{8},2bxh[8:1]/6bxh[8:1],,,1bxh[8:1]/5bxh[8:1],,,8bxh[8:1]/4bxh[8:1],
,,{4}1bxh[8:1]/5bxh[8:1],2bxh[8:1]/6bxh[8:1],3bxh[8:1]/7bxh[8:1],
4bxh[8:1]/8bxh[8:1],5bxh[8:1]/1bxh[8:1],{8}6bh[4:1]/2bh[4:1],{4},{256}6bqq8[8:13],2bpp8b[256:415],,,,,,,,,,,,,,,{16}5/1,
4/8,3/7,{8}2bx/6bx,,,,,,,,,,,,,,,3,
{16}7,6,{8}2/5,{16}7,6,{4}5/1h[4:1],{8}8,8,
{16}1bx,2,3/7bx,6,5/2bx,3,{8}4/6xh[8:1],{4}1w5b[8:1],D2/D1/A1f,
{8}2-5[8:1],2,8-4[8:1],8,{4}1x,{16}1bx,2x,{8}3x,
6-1[8:1],6,2-5[8:1],2,{4}7x,{16}7bx,6x,{8}5x,
8v3[8:1],8,7-4[8:1],7,{4}1x,{16}1bx,2x,{8}3x,
6-1[8:1],5-2[8:1],6,5,{4}8h[4:1],{16}2bx,3x,{8}4x,
8-4[8:1],8,1-5[8:1],1,{4}7<4[8:1],{16}3bx,2x,{8}1x,
,8/7,,3/2,{4}6-2b[8:1]/5-1b[8:1],6b/5b,
8-4b[8:1],8,{8}3/5,3h[8:1]/5h[8:1],,2/6,
7,1,7,1,{16}7b,6,{8}5,{16}3b,2,{8}1,
7-4[8:1],7,8-4[8:1],8,{4}6h[4:1],{16}1b,2,{8}3,
8-4[8:1],8,2>5[8:1],2,{4}1x,{16}1b,8,{8}7,
6x-2[8:1],6x,3>8[8:1],3,{4}7x,{16}7b,6,{8}5,
3-8[8:1],4-7[8:1],3,4,{4}1h[4:1],{16}6bx,5x,{8}4x,
8-4[8:1],8,7-5[8:1],7,2>5[8:1],2,{4}1bh[4:1],
{8},8b/7b,,6b/5b,{4}3b-7b[8:1]/4b-8b[8:1],4bx/3bx,
{2}1x-5[8:1]/6x-2[8:1],{8}3h[8:1]/4h[8:1],,,5h[8:7]/4x>5[8:5],
,,,,,,,,{2}3h[4:3],
{4}B5,6h[4:3],
,B4,{2}2h[2:1],
{4}5h[4:1],3h[4:1],6h[4:1],4h[4:3],
,B7,{2}5h[4:3],
{4}B2,1h[4:1],6h[4:1],2h[4:1],
{8}4h[8:1],,,4h[8:1]/2h[8:1],,,{4}3h[8:1]/5h[8:1],
{8},4h[8:1]/6h[8:1],,,{4}3h[8:1]/7h[8:1],2/8,
{16}A1,D2,A2,D3,A3,D4,A4,D5,A5,D6,A6,D7,A7,D8,A8,D1,
A1/A5,D5,A4,D4,A3,D3,A2,D2,A1,D1,A8,D8,A7,D7,A6,D6,
{1}A5/Ch[1:3],
,E7h[1:1]/E3h[1:1],
{4},,4-1b[8:1]/5-8b[8:1],5b/4b,
{8}2-5[8:1],2,7-4[8:1],7,1-5[8:1],1,6-2[8:1],6,
3-8[8:1],3,5-1[8:1],5,{16}2b,3,{8}4,{16}8b,7,{8}6,
{4}2bh[4:1],1b,{8}7b/6b,3b-8b[8:1]/4b-7b[8:1],,3b/4b,
{24},,,,{12}2x,1,2,1,{16}2b,3,{8}4,{16}8b,7,6,5,
{8}1-5[8:1],1,7-4[8:1],7,2>5[8:1],2,{16}6bx,7,8,1,
,,{8}3-8[8:1],4,3,{16}5b,6,{8}7,{16}3b,2,{8}1,
8-4[8:1],8,2-5[8:1],2,7<4[8:1],7,{16}3bx,2,1,8,
,,{8}6-1[8:1],5,6,{16}4b,3,{8}2,{16}6b,7,{8}8,
3-8[8:1],3,5-1[8:1],5,4-8[8:1],4,{16}7bx,6x,5x,4x,
,,{8}1bxh[8:1]/2bxh[8:1],,7bx/3bx,{4}7bxh[8:1]/3bxh[8:1],{8}8/2,8/2,
{4}7-2[8:1]/3-6[8:1],7b/3b,{8}1x/5x,{256}8xqq4b[1:1],4xqq8[1:1],{16},,,{64},,,{128},{8}8bx/4bx,
,,,,,,,,{1}E5h[4:11],
,E6h[2:1]/E4h[2:1],
{16}7,8,7,1,,,6,8,6,2,,,5,1,5,3,
,,4,3,4,2,,,{8}5x/1x,5x/2x,{4}5x/3x,
{16}2,1,2,8,,,3,1,3,7,,,4,8,4,6,
,,5,6,5,7,,,{8}4x/8x,4x/7x,4x/6x,5xh[8:1]/4xh[8:1],
,,1/2,8b/3b,,7/8,{4}1b/6b,
{8}4/3,5b/2b,,6/5,{4}4b/7b,{8}3/8,8b/3b,
,6/1,{4}1b/6b,7bh[16:1]/8bh[16:1],6bh[16:1]/1bh[16:1],
5bh[16:1]/2bh[16:1],3bh[16:1]/4bh[16:1],7bh[16:1]/6bh[16:1],1bh[16:1]/2bh[16:1],
{1}Ch[2:3],
{4},,,8bx/1bx,
{24}1b,2,3,4,5,6,7,8,1,2,3,4,5/1h,6,7,8,1,2,3/7h,4,5,6,7,8,
1/5h,2,3,4,5,6,7/3h,8,1,2,3,4,5/1bh,8,7,6,5,4,{4}3/1w5b[8:1],
{24}1b,B1,C,B5f,
E
