&title=幾望の月
&artist=なきゃむりゃ
&first=0
&des=几望月
&lv_6=13+
&inote_6=(276)
{2},,,,,
{16}2h[1:1]/5h[1:1],,,,,,,,,,,,,,,,,,,,
{16}3h[1:1]/7h[1:1],,,,,,,,,,,,,,,,,,,,
{16}1h[1:1]/6h[1:1],,,,,,,,,,,,,,,,,,,,
{16}4/8p3<7[1:1],,,,,,,,2,,,,2,,,,,,,,,,,,
{16}7h[1:1]/4h[1:1],,,,,,,,,,,,,,,,,,,,
{16}6h[1:1]/2h[1:1],,,,,,,,,,,,,,,,,,,,
{16}8h[1:1]/3h[1:1],,,,,,,,,,,,,,,,,,,,
{16}1,,7,,2,,6,,3,,5,,2,,8,,3,,7,,4,,6,,
{16}E2,,E5,,C,,E7,,,,1x/5x,,,,2,,4,,,,
{16}E8,,E5,,C,,E3,,,,8x/4x,,,,7,,5,,,,
{16}E2,,E5,,C,,E7,,,,1x/5x,,,,2,,4,,,,
{16}8,,2,,1,,3,,5,,3,,5,,3,,{12}6x,7,8,1b/2b,,,
{16}7,,E4,,E7,,B1,,,,8x/4x,,,,7,,5,,,,
{16}2,,E6,,E3,,B8,,,,1x/5x,,,,2,,4,,,,
{16}7,,E4,,E7,,B1,,,,8x/4x,,,,7,,5,,,,
{16}1,,7,,8,,6,,4,,6,,4,,6,,{12}3x,2,1,8b/7b,,,
{16}2,,4,,E1,,B6,,,,1x/5x,,,,3,,4,,,,
{16}7,,5,,E1,,B3,,,,8x/4x,,,,6,,5,,,,
{16}2,,4,,E1,,B6,,,,1x/5x,,,,3,,4,,,,
{16}8,,2,,1,,3,,4,,3,,4,,3,,{12}5x,6,7,8b/2b,,,
{16}7,,5,,6,,E3,,,,8x/4x,,,,6,,5,,,,
{16}2,,4,,3,,E7,,,,1x/5x,,,,3,,4,,,,
{16}7,,5,,6,,E3,,,,8x/4x,,,,6,,5,,,,
{16}1,,7,,8,,6,,5,,6,,5,,6,,{12}4x,3,2,1b/7b,,,
{16}2,,4,,3,,7,,,,1x/5x,,,,2,,8,,,,
{16}7,,5,,6,,2,,,,8x/4x,,,,7,,1,,,,
{16}2,,4,,3,,7,,,,1x/5x,,,,2,,8,,,,
{16}7,,5,,6,,4,,5,,4,,5,,4,,{12}6x,7,8,1,2,3,
{16}8xb/4x,,8,,6,,5,,,,74,,,,8h[4:1]/5h[8:3],,,,,,
{16}1xb,,1,,3,,4,,,,25,,,,1h[4:1]/4h[8:3],,,,,,
{16}8xb,,8,,6,,5,,,,74,,,,8h[4:1]/5h[8:3],,,,,,
{16}7xb,,5,,6,,2,,4,,3,,8,,1,,7,,2,,{12}6,5,4,
{16}3x/6x<3[4:14],,,,,,,,,,,,,,,,,,,,,,,,,,,,
{16}E1,,,,,,,,,,,,,,E4,,,,E6,,,,,,,,,,Ch[4:1],,,,,,,,,,,,
{16}3x>6[4:12]*p6[4:12],,,,,,,,,,,,,,,,,,,,,,,,,,,,
{16},,,,,,,,,,,,,,,,,,,,,,,,,,,,,,,,
{16}1^4[4:7],,,,,,,,,,,,,,,,,,E8,,,,,,E2,,,,,,,,
{16}8^5[4:6],,,,,,,,B6,,,,,,,,B3,,,,,,C,,,,,,
{16}2bV41[4:7],,,,,,,,,,,,,,,,,,,,5-8[2:1],,,,,,,,,,,,,,,,
{16}1x/8x,,,,27,,,,36,,,,4/5h[4:3],,,,D7,,D8,,D1,,D2,,D3f,,,,,,,,
{16}1xb/8xb,,,,25,,,,3,,4,,,,4,,2^7[4:1],,,,7^4[4:1],,,,,,,,
{16}8xqq4[4:3],,,,,,,,4,,,,3,,3,,,,1,,1,,,,28,,,,3p7[4:1]/7p3[4:1],,,,,,,,,,,,
{16}1b/8b,,,,34,,,,56,,,,2,,7,,,,7,,2h[4:1],,,,8,,,,
{16}7,,5,,6,,4,,,,8,,8,,,,2,,4,,3,,5,,,,1,,1bs5[4:1],,2x/8x,,
{16},,,,,,,,74,,,,6,,5,,,,5,,7^2[4:1],,,,2^5[4:1],,,,,,,,
{16}1x,,1,,,,7,,7,,,,3,,5,,4,,6,,,,2h[4:1]/8h[4:1],,,,,,
{16}3bq5[4:3]/7b,,,,,,,,8,,,,8,,,,8,,,,8/4x,,,,8/4x,,,,8/4x,,,,8/4x,,,,
{12}E4,,E3,,E2,,E6,,E7,,E8,,E5,,C,,E1,,5x,,4xqq3[12:10],,5xpp6[12:8],,
{16},,,,,,,,,,,,,,,,
{16}2h[2:1]/7h[2:1],,,,,,,,,,,,,,,,
{16}3/4h[1:1],,,,,,,,,,,,5,,,,
{16}5,,,,7,,8,,
{16}7h[4:3],,,,,,,,,,,,5,,,,
{16}8h[2:1]/4h[2:1],,,,,,,,,,,,3,,5,,
{16}3h[4:3],,,,,,,,,,,,4,,,,
{16}52,,,,,,,,
{16}1h[4:3]/2x,,,,,,,,,,,,8,,,,
{16}7h[2:1]/2h[2:1],,,,,,,,,,,,,,,,
{16}6/5h[1:1],,,,,,,,,,,,4,,,,
{16}4,,,,2,,1,,
{16}2h[4:3],,,,,,,,,,,,4,,,,
{16}1h[2:1]/5h[2:1],,,,,,,,,,,,6,,4,,
{16}6h[4:3],,,,,,,,,,,,5,,,,
{16}8,,1,,8,,2b^4[8:1]/7b^5[8:1],,,,7b/2b,,,,,,
{16}18,,,,7,,3,,25,,,,1,,6,,
{16}37,,,,26,,,,15,,,,4^7[4:1]/8^3[4:1],,,,
{16},,,,,,,,4b/8b-4[4:1],,,,,,,,
{16}2h[4:1],,,,1,,3,,6,,5,,47,,,,
{16}18,,,,7,,3,,24,,,,1,,6,,
{16}74,,,,63,,,,52,,,,1h[1:1]/4^7[4:1],,,,
{16},,,,{12}D8,D1,D2,D3,D4,D5,{16}D6,,,,
{16}7xbqq8[2:1]/3bqq4[2:1],,,,,,,,,,,,,,,,
{16}81,,,,2,,6,,74,,,,8,,3,,
{16}62,,,,73,,,,84,,,,5^2[4:1]/1^6[4:1],,,,
{16},,,,,,,,5b/1b-5[4:1],,,,,,,,
{16}7h[4:1],,,,8,,6,,3,,4,,52,,,,
{16}3b/7<1[2:1],,,,,,,,1>7b[2:1],,,,,,,,
{16}7<1[2:1]*p1[2:1],,,,,,,,A4/B4f/C,,,,,,,,
{16}8xw4[2:3]/7x,,,,,,,,,,,,,,,,
{16},,,,,,,,,,,,,,,,
{16},,,,3,,,,26,,,,7,,5,,
{16}6,,,,2,,4,,3,,,,78,,,,
{16}1xw5[2:3]/5,,,,,,,,,,,,,,,,
{16},,,,,,,,,,,,,,,,
{16}4b^1[4:1]/6,,,,7,,7h[8:3],,,,,,8,,,,
{16}5b^8[4:1]/3,,,,2,,2h[8:3],,,,,,1,,,,
{16}3-7[4:1]/7,,,,4-8[4:1],,,,,,,,,,,,
{16}18,,,,3,,24,,,,6,,5qq4[2:1]/7,,,,
{16},,,,8,,,,7,,,,6,,,,
{16}5,,4,,5,,4,,5,,,,3b,,,,
{16}6-2[4:1]/2,,,,5-1[4:1],,,,,,,,,,,,
{16}81,,,,27,,2h[8:3]/7h[8:3],,,,,,,,,,
{12}65,,5,,5,,75,,5,,5,,
{12}85,,5,,5,,15,,5,,5,,
{12}25,,5,,5,,35,,5,,5,,
{12}45,,5,,5,,{16}5/Cf,,,,,,,,
{16}7,,5,,6,,3,,,,8x/4x,,,,7,,5,,,,
{16}2,,4,,3,,6,,,,1x/5x,,,,2,,4,,,,
{16}7,,5,,6,,3,,,,8x/4x,,,,7,,5,,,,
{16}1,,7,,8,,6,,4,,6,,4,,6,,{12}3x,2,1,8b/7b,,,
{16}2,,4,,3,,B7,,,,1x/5x,,,,2,,4,,,,
{16}7,,5,,6,,B2,,,,8x/4x,,,,7,,5,,,,
{16}2,,4,,3,,B7,,,,1x/5x,,,,2,,4,,,,
{16}8,,2,,1,,3,,5,,3,,5,,3,,{12}6x,7,8,1b/2b,,,
{16}7,,5,,B1,,E3,,,,8x/4x,,,,6,,5,,,,
{16}2,,4,,B8,,E7,,,,1x/5x,,,,3,,4,,,,
{16}7,,5,,B1,,E3,,,,8x/4x,,,,6,,5,,,,
{16}1,,7,,8,,6,,5,,6,,5,,6,,{12}4x,3,2,1b/7b,,,
{16}2,,E6,,B3,,B8,,,,1x/5x,,,,3,,4,,,,
{16}7,,E4,,B6,,B1,,,,8x/4x,,,,6,,5,,,,
{16}2,,E6,,B3,,B8,,,,1x/5x,,,,3,,4,,,,
{16}8,,2,,1,,3,,4,,3,,4,,3,,{12}5x,6,7,8b/2b,,,
{16}B7,,B4,,C,,E2,,,,8x/4x,,,,7,,1,,,,
{16}B2,,B5,,C,,E8,,,,1x/5x,,,,2,,8,,,,
{16}B7,,B4,,C,,E2,,,,8x/4x,,,,7,,1,,,,
{16}2,,4,,3,,5,,4,,5,,4,,5,,{12}3x,2,1,8,7,6,
{16}1xb/5x,,1,,3,,4,,,,25,,,,1h[4:1]/4h[8:3],,,,,,
{16}8xb,,8,,6,,5,,,,74,,,,8h[4:1]/5h[8:3],,,,,,
{16}1xb,,1,,3,,4,,,,25,,,,1h[4:1]/4h[8:3],,,,,,
{16}2xb,,4,,3,,7,,5,,6,,1,,8,,2,,7,,{12}3,4,5,{4}6-1b[8:1]/3-8[8:1],
{1}3b/6b/A7/A2/B7/B2/Cf,,,
