&title=まにまに
&artist=r-906
&first=0.03
&des=Quixto
&demo_seek=144.345
&lv_6=13+
&inote_6=(174)
{1},
{1}1/5>5[4:5],3-1-7-5-3b[4:5],1<1[4:5],,
{4}1pp2[4:2]/7,7,6,6,5pp6b[4:2]/3,3,2,2,
{8}1/5,1,7,7,3,3,5,5,
{16}1x,2,3,4,1x,8,7,6,5x,4,3,2,5x,6,7,8,
{1}2b^4q1^8q5^7b[4:7],,,,
{16}5,,,5,,,5,,,,3h[4:1],,,,2,,,,4,,4,,,,5,,,,,,,,
{16}4,,,4,,,4,,,,6h[4:1],,,,7,,,,5,,5,,,,4,,,,B3,,,,
{16}7,,,1,7,,1,,6,,B1,,6,,B3,,
{16}7,,2,,2/7,,,,E6,,,,E6,,,,
{16}2,,,8,2,,8,,3,,B8,,3,,B6,,
{16}2,,7,,7/2,,,,E4,,,,E4,,,,
{16}6,,6,1x,7,,7/1x,,8,,8/2x,,1,,1/3x,,
{16}3,,4,,4/6x,,5,,5/3x,,6,,6,,7,,
{16}1,,,1,7,,,7,2,,,2,4,,,,3,,5,,3,,6,,4-8b[8:1],,,,6hbx[4:8],,,,
{1}2hbx[4:7],,
{16}1,,,1,,,2-5[8:1],,,,6-2[8:1],,,,,,
{16},,3,,3,,5-7b[8:1],,5v3^1[4:1],,,,,,,,
{16}8,,,8,,,7-4[8:1],,,,3-7[8:1],,,,,,
{16},,6,,6-1[8:1],,,,4,,3hx[8:1],,,,3hx[8:1],,
{16}7,,,7,,,8-4[8:1],,,,3>8[8:1],,,,,,
{16},,6,,6h[4:1],,,,A2,A1,A8,A7,A6,A5,A4,A3,
{16}8,,,8,,,2-5[8:1],,,,6-2[8:1],,,,,,
{16},,3,,3-8[8:1],,,,5,,6xh[8:1],,,,6xh[8:1],,
{16}1,,,1,,,2-5[8:1],,,,6-2[8:1],,,,,,
{16},,3,,3,,5^7b[8:1],,5v2^1[4:1],,,,,,,,
{16}8,,,8,,,7<4[8:1],,,,3-7[8:1],,,,,,
{16},,6,,6-1[8:1],,,,4,,3hx[8:1],,,,3hx[8:1],,
{16}7,,,7,,,8-4[8:1],,,,1>4[8:1],,,,,,
{16},,6,,6h[4:1],,,,A7,A8,A1,A2,A3,A4,A5,A6,
{16}8,,,8,,,7-5[8:1],,,,3-7[8:1],,,,,,
{16},,4,,4-8[8:1],,,,1,,2xh[8:1],,,,2xh[8:1],,
{16}5,,,5,,,6q2[8:1],,,,4>2[8:1],,,,,,
{16},,8,,8,,1-3b[8:1],,1<7qq5[4:1],,,,,,,,
{16}2,,,2,,,3-8[8:1],,,,5-7^8[8:1],,,,,,
{16},,4,,4-2^1[8:1],,,,6,,7xh[8:1],,,,7xh[8:1],,
{16}3,,,3,,,4v2[8:1],,,,7-1^2[8:1],,,,,,
{16},,3,,3h[4:1],,,,A7,A8,A1,A2,A3,A4,A5,A6,
{16}2,,,2,,,1v3^4[8:1],,,,6^7-1[8:1],,,,,,
{16},,4,,4v1[8:1],,,,7,,6xh[8:1],,,,6xh[8:1],,
{16}2,,,2,,,8-6^5[8:1],,,,1q5[8:1],,,,,,
{16},,6,,6,,3-1b[8:1],,3v6-8[4:1],,,,,,,,
{16}4,,,4,,,7^8-2[8:1],,,,5v2[8:1],,,,,,
{16},,7,,7-3[8:1],,,,1,,2xh[8:1],,,,2xh[8:1],,
{16}6bh[2:3],,,,,,,,,,,,,,,,
{16},,,,,,,,A3,A2,A1,A8,A7,A6,A5,A4,
{16}A3,,8,,7/2,,3,,5,,4,6,,6,,4,
{16},,1,,7/2,,6-8[8:1],,4h[8:3],,6-2[8:1],,,,6,,
{16},,4,,3/6,,7,,1,,8,2,,2,,8,
{16},,5,,3/6,,2-6b[8:1],,8^1-5^4[8:2],,,,,,,,
{16},,2,,1/7,,6,,4,,5,3,,3,,5,
{16},,7,,8/2,,3-1[8:1],,5h[8:3],,3-7[8:1],,,,3,,
{16},,6,,5/3,,2,,8,,1,7,,7,,1,
{16},,3,,4,6,,5,3,6,4,5,3x,5x,4x,,
{16},,4,,3/6,,7,,1,,8,2,,2,,8,
{16},,5,,3/6,,2-4[8:1],,8h[8:3],,2-6[8:1],,,,2,,
{16},,8,,7/2,,3,,5,,4,6,,6,,4,
{16},,1,,7/2,,6-2b[8:1],,4^5-1^8[8:2],,,,,,,,
{16},,6,,5/3,,2,,8,,1,7,,7,,1,
{16},,3,,4/6,,7-5[8:1],,1h[8:3],,7-3[8:1],,,,7,,
{16},,2,,1/7,,,6,,3,5,,5,,4,6,
{16},5,3,,4,5,,5,,3,5,4,6x,3x,5x,,
{16}2,,,,3/8,,,,7,,5,,6,,3/5,,
{16},,7/4,,,,1/5,,,,2,,1,,2,,
{16}3/8,,,,5/7,,,,2,,4,,3,,6/4,,
{16},,2/5,,,,8/4,,,,7,,8,,7,,
{16}2/6,,,,3/4,,,,7,,5,,6,,5/2,,
{16},,3/7,,,,6/1,,,,2,,1,,2,,
{16}7/3,,,,6/5,,,,2,,4,,3,,4/7,,
{16},,6/2,,,,3/8,,,,6,,4,,6,,
{16}7/2,,,,1/5,,,,7,,5,,6,,5/3,,
{16},,1/4,,,,2/6,,,,3,,5,,3,,
{16}2/7,,,,8/4,,,,2,,4,,3,,4/6,,
{16},,8/5,,,,7/3,,,,5,,3,,5,,
{16}2/6<7-3>2[1:1],,,,,,,,,,8,,,,,,
{16}8>1-5>4b[1:1],,,,,,,,,,7,,,,,,
{16}7^8v2^3-6>4[4:6],,,,,,,,,,,,,,,,
{16}1,,,,,,,,,,,,,,,,
{8}1h[1:1],,B2,,,,B8,,
{8}7h[1:1],,B8,,,,B6,,
{8}5h[1:1],,B6,,,,B4,,
{8}3h[1:1],,B4,,,,B2,1x,
{8}1x,,8,,,,8,,
{8},,6,,,,6,,
{8},,4,,,,4,,
{8},,2,,,,2,8x,
{8}8xh[1:1],,B1,,B3,,E5,,
{8}3h[1:1],,B8,,B6,,E5,,
{8}6h[1:1],,B4,,B2,,E1,,
{8}2h[1:1],,B5,,B7,,E1,,
{8}7,,3,,5,4,3,2,
{8},8,,6,,8,7,6,
{16}4x,5,4,5,3x,6,3,6,2x,7,2x,7,1x,8,1x,8,
{16}2,,,,2,,,,2,,3x/6x,,3x/6x,,2,,
{16}8b/1b-5[8:1],,,,1/6,,7,,8h[8:3],,1-4[8:1],,2,,1>5[8:1]*<6[8:1],,
{16},,1p5[8:1],,,,1,,,,6/4,,3/5-7[8:1],,4,,
{16}5-1[8:1]*-2[8:1],,,,,,,,8v6[8:1],,1v3[8:1],,8x,,1x,,
{16},,2,,5/4-2-6[4:1],,7,,4/5-7-3b[4:1],,,,,,,,
{16}1b-4[8:1],,,,1/7-3[8:1],,,,7/6-1[8:1],,,,4,,4p8[8:1]*<7[8:1],,
{16},,4>2[8:1],,,,4,,,,8,,8/2,,1,,
{16}1v4[8:1]/7v4[8:1],,,,1>7b[4:2]/7,,,,1,,E7,,E8,,E1,,
{16},,5,,,,4,,7,,B8/B2,,B8/B2,,,,
{16}3b-8[8:1]/6b,,,,3/5,,6,,7h[8:3],,1-4[8:1],,2,,1p5[8:1]*-7-5[8:1],,
{16},,1>4[8:1],,,,1,,,,5,,6/3-7[8:1],,4,,
{16}6-1[8:1]/3,,5,,3/6,,,,5-1[8:1],,5-2[8:1],,5x,,5x,,
{16},,7,,6/1,,3,,4/7,,8,,1,,2,,
{16}3b/5b<1[4:1],,,,2,,3,,4>7b[4:1],,,,7,,6,,
{16}5<3[4:1],,,,2,,3,,4>5b[4:1],,,,,,4x,,
{16}4x-2-8[4:1],,,,8-6-4b[4:1],,,,4>8[4:1],,,,8<4b[4:1],,,,
{16}4,,,,8,,,,2v5b[8:1]/6v1[8:1],,,,2>4qq1[4:7]/6<8qq5b[4:7],,,,
{1}2b/6b,,
{16}4,,3,,6,4,5,4,6,,7,,8,,1,,,,3,,6,4,5,4,6,,7,,A8,,,,
{16}5,,6,,3,5,4,5,3,,2,,1,,8,,,,6,,3,5,4,5,3,,2,,A1,,,,
{16}4,,3,,6,4,5,4,6,,7,,8,,1,,,,3,,6,4,5,4,6,,7,,8x,8x,8x,8x,
{16}8bx,,,3,4/6,,8,,,3,3,,4/6,,8,,
{16},,3,,6,4,5,4,6,,7,,A8,,,,
{16}1,,,6,5/3,,1,,,6,6,,5/3,,1,,
{16},,6,,3,5,4,5,3,,2,,8x,1x,1x,1x,
{16}8bx,,,3,4/6,,8,,,3,3,,4/6,,8,,
{16},,3,,6,4,5,4,6,,7,,8x,8x,8x,,
{16}2b/6b,,3x,5,4,7x,4,5,2x,5,4,8x,4,5,1x,5,
{16}4b,,6,8,6b,,3,1,3b,,7,5,7b^8-4-6b[8:11]*-3-1[8:11],,,,
{1},
{16},,,,,,,,,,7x/2x,,7x/2x,,6,,
{16}4b/5b-1b[8:1],,,,5/2,,3,,4h[8:3],,5-8b[8:1],,6,,5<1[8:1]*>2[8:1],,
{16},,5p1[8:1],,,,5,,,,8-4b[8:1]/2,,1-3[8:1]/7,,8,,
{16}1,,5-1[8:1],,6-8b[8:1],,5,,6,,2,,3,,4-8[8:1]/5,,
{16},,6-1b[8:1],,7,,3-7[8:1],,2,,6,,5,,4,,
{16}3b/6b-2b[8:1],,,,4h[4:1],,,,8-3[8:1],,7-4b[8:1],,8,,7,,
{16},,1v6b[8:1]/2v5[8:1],,8/3,,1/2,,,,3/7,,3-1^8[8:1]/7-5^4b[8:1],,,,
{16}7-3[8:1]/3,,,,7,,,,5v2[8:1],,5v8[8:1],,5x,,5x-3^2[8:1]*-7^8b[8:1],,
{16},,,,,,,,3,,B2/B8,,B2/B8,,,,
{16}3/6-1b[8:1],,,,6/2,,3,,4h[8:3],,5-7^8b[8:1],,6,,5-2[8:1]*v3^2[8:1],,
{16},,5-8[8:1],,,,5,,,,2,,1-5[8:1]/7,,2/8-6b[8:1],,
{16}1-3[8:1],,8-4b[8:1],,1-6[8:1],,8-3b[8:1],,,,,,4x,,4x,,
{16},,2,,3/8,,6,,5/2,,1,,8,,7,,
{16}6b/4b>8[4:1],,,,7,,6,,5<2b[4:1],,,,2,,3,,
{16}4>6[4:1],,,,7,,6,,5<4b[4:1],,,,,,5x,,
{16}5x-7-1[4:1],,,,1-3-5b[4:1],,,,5<1[4:1],,,,1>5b[4:1],,,,
{16}5<1[4:1],,,,1,,,,5b,,,,4b,,,,
{16}1b/8b-4b[8:1],,,,8/3,,2,,1h[8:3],,8-5b[8:1],,7,,8<4[8:1]*>3[8:1],,
{16},,8q4[8:1],,,,8,,,,3/5,,6/4-2[8:1],,5,,
{16}4-8[8:1]*-7b[8:1],,,,,,,,1v3[8:1],,8v6b[8:1],,1x,,8x,,
{16},,7,,4/5-7-3[4:1],,2,,5/4-2-6b[4:1],,,,,,,,
{16}8b-5b[8:1],,,,8/2-6[8:1],,2,,2/3-8[8:1],,,,5,,5q1[8:1]*>2[8:1],,
{16},,5<7b[8:1],,,,5,,,,1,,1/7,,8,,
{16}8v5[8:1]/2v5[8:1],,,,8<2b[4:2]/2,,,,8,,E3,,E2,,E1,,
{16},,4,,,,5,,2,,B1/B7,,B1/B7,,,,
{16}6b-1b[8:1]/3b,,,,6/4,,3,,2h[8:3],,8-5b[8:1],,7,,8q4[8:1]*-2-4[8:1],,
{16},,8<5[8:1],,,,8,,,,4,,3/6-2[8:1],,5,,
{16}3-8b[8:1]/6,,4,,6/3,,,,4-8[8:1],,4-7b[8:1],,4x,,4x,,
{16},,2,,3/8,,6,,5/2,,1,,8,,7,,
{16}6b/4b>8[4:1],,,,7,,6,,5<2b[4:1],,,,2,,3,,
{16}4>6[4:1],,,,7,,6,,5<4b[4:1],,,,,,5x,,
{16}5x-7-1[4:1],,,,1-3-5b[4:1],,,,5<1[4:1],,,,1>5b[4:1],,,,
{16}5,,,,1,,,,7v4b[8:1]/3v8[8:1],,,,7/3,,,,
{1}6b/2b,,
