&title=夢厭 con eleganza
&artist=大前司
&first=0
&des=東北記念病院
&lv_5=13
&inote_5=(130)
{1},
{16},,,,,,,,,,,,,,4,5,
{16}4<8[8:1]*>8[8:1],,,,,,,,8,,1h[16:1],7,,2h[16:1],8,,
{16}7>3[8:1]*<3[8:1],,,,,,,,3,,4h[16:1],2,,5h[16:1],3,,
{16}3>7[8:1]*<7[8:1],,,,,,,,7,,8h[16:1],6,,1h[16:1],7,,
{16}2,,8h[16:1],2,,7h[16:1],1,,6h[16:1],8,,7h[16:1],1,,8h[16:1],2,
{8}7h[8:1],8h[8:1],7h[8:1],8h[8:1],7h[8:1],6h[8:1],5h[8:1],4h[8:1],
{8}3h[8:1],2h[8:1],3h[8:1],2h[8:1],3h[8:1],4h[8:1],5h[8:1],6h[8:1],
{8}7h[8:1],8h[8:1],7h[8:1],8h[8:1],7h[8:1],6h[8:1],5h[8:1],4h[8:1],
{8}3h[8:1],2h[8:1],1h[8:1],8h[8:1],7h[8:1],6h[8:1],5,,
{16}1b/8b,,3,4,3,4,2h[4:1],,1,,8,,7pp1[8:1]/2qq8[8:1],,,,
{16}27,,,,{12}18,27,36,{16}4-1[8:1]/5h[4:1],,6,,4,,,,
{16}78,,2,4,,6,5h[2:1],,4,,3,,2>5[8:1],,1,,
{16}2,,8h[8:1],,4,3,2,1,8w4[16:1],,,,,,,,
{16}3,5,3,5,4,6,4,6,5>1[8:1],7,5,7,5,,,,
{16}6,4,6,4,5,3,5,3,4<8[8:1],2,4,2,4,,,,
{16}2,4,2,4,3,5,3,5,4,6,4,6,5,7,5,7,
{16}1,7,5,7,3,7,5,7,8,7,5,7,2,7,5,7,
{8}1b,,,,,,,,
{1},
{48}3bqq8[4:6],4b,5b,,,,,,,,,,{4},,,
{1},
{16}8b/1h[8:3],,4,5,6,,8,,2,,3,,4pp1[4:3],,,,
{4}4h[2:1],,,,
{16}1/8h[8:3],,5,4,3,,1,,7,,6,,5qq8[4:3],,,,
{4}5h[2:1],,,,
{16}18,,27,,6,5,6,5,7<4[8:1]/4,,8,,47,,,,
{16}3h[8:3],,2,,1-5[8:1],,8,,1-4[8:1],,7,6,1,,8,7,
{16}1h[2:1],,,,8,7,6,5,4h[4:1],,,,8,1,2,3,
{16}48,,6,5h[16:5],,6,7,8,1,,3,4,,8,7,,
{16}8b/1h[8:3],,4,5,6,,8,,1,2,3,4,5qq8[4:3],,,,
{4}5h[2:1],,,,
{16}6,6h[16:3],5,4,3,,5,5h[16:3],4,3,2,,4-8[2:1],4,3,2,
{16}1h[2:1],,,,,,,,,,,,,,,,
{16}3,,3,4,,4,5,,56,,6,7,,7,8,,
{16}18,,1,2,,2,3,,34,,4,5,,5,6,,
{16}7,7h[16:3],,6,6h[16:3],,5,5h[16:3],,4,4h[16:3],,3,3,,7,
{24}1,8,1,8,1,8,1,8,1,8,1,8,{32}1,2,3,4,5,6,7,8,15,4,3,2,1,8,7,6,
{16}5/1bqq4[4:7]*pp6[4:7],,,,,,,,,,,,,,,,
{1},
{12},,,3,4,5,6,,,3,4,5,
{12}6,,,1,2,3,4,5,6,7,8,1,
{12}2,8,2,7,1,7,2,8,2,7,1,7,
{12}3,5,3,6,4,6,3,5,3,6,4,6,
{12}73,,,8,7,6,5,4,3,2,1,8,
{12}7,1,7,2,8,2,7,1,7,2,8,2,
{12}37,,,1,2,3,4>1[4:1],,,8,7,6,
{12}5<8[4:1],,,1,2,3,4>1[4:1],,,1<6[4:1],,,
{12}6>3[4:1],,,8,7,6,5-1[4:1],,,1,2,3,
{12}4-8[4:1],,,8,7,6,5-1[4:1],,,1-4[4:1],,,
{12}4-7[4:1],,,8,1,2,3q1[4:1],,,1,8,7,
{12}6p8[4:1],,,8,1,2,3q1[4:1],,1,1q7[4:1],1,,
{12}7q5[4:1],,,5,6,7,8q5[4:1],,,4,3,2,
{12}1p4[4:1],,,5,6,7,8,1,2,3,4,5,
{24}4b,3,2,5,6,7,4,3,2,5,6,7,3,2,1,6,7,8,3,2,1,6,7,8,
{24}1b,2,3,8,7,6,1,2,3,8,7,6,2,3,4,7,6,5,2,3,4,7,6,5,
{24}4b,3,2,5,6,7,4,3,2,5,6,7,3,2,1,6,7,8,3,2,1,6,7,8,
{24}1b,2,3,4,5,6,1,2,3,4,5,6,2,3,4,5,6,7,3,4,5,6,7,8,
{24}1/2b,3,4,5,6,7,2,3,4,5,6,7,8/1b,2,3,4,5,6,1,2,3,4,5,6,
{24}7/2b,3,4,5,6,7,2,3,4,5,6,7,8/1b,2,3,4,5,6,1,2,3,4,5,6,
{24}2,7,2,7,2,7,2,7,2,7,2,7,2,7,2,7,2,7,2,7,2,7,2,7,
{24}2,7,2,7,2,7,2,7,2,7,2,7,2,7,2,7,2,7,2,7,2,7,2,7,
{24}2,7,2,7,2,7,2,7,2,7,2,7,2,7,2,7,2,7,2-5[16:1],7,2,7,2,7,
{1}2bV84[2:1]*z6[2:1],
{16}2h[8:1],,1h[8:1],,2h[8:1],,1h[8:1],,2h[8:1],,1,2h[8:1],,8,2h[8:1],,
{16}7h[8:1],,8h[8:1],,7h[8:1],,8h[8:1],,7h[8:1],,8,7h[8:1],,1,7h[8:1],,
{16}2h[8:1],,1h[8:1],,2h[8:1],,1h[8:1],,2h[8:1],,1,2h[8:1],,8,2h[8:1],,
{8}7h[8:1],6h[8:1],5h[8:1],4h[8:1],3h[8:1],2h[8:1],1-5[12:1],,
{16}1b,,,6b,,,7b-4[12:1],,,,7b,,8b,,1h[16:1],,
{32}
1b,2,3h[128:16],,,,
1b,2,3h[128:15],,,,
1b,2,3h[128:14],,,,
1b,2,3h[128:13],,,,
1b,2,3h[128:12],,,,
1b,2,3h[128:11],,,,
1b,2,3h[128:10],,,,
1b,2,3h[128:9],,,,
1b,2,3h[128:8],,,,
1b,2,3h[128:7],,,,
1b,2,3h[128:6],,,,
1b,2,3h[128:5],,,,
1b,2,3h[128:4],,,,
1b,2,3h[128:3],,,,
1b,2,3h[128:2],,,,
1b,2,3h[128:1],,,,
(173.3333)
{12}2>5[8:1],6,6,2,7,7,{24}2,1,8,7,6,5,1-5[8:1],8,7,6,5,4,
{8}1,,{12}7h[6:1],6,5,6h[6:1],5,4,5h[6:1],4,3,
{12}7<4[8:1],3,3,7,2,2,{24}7,8,1,2,3,4,8-4[8:1],1,2,3,4,5,
{8}8,,{12}2h[6:1],3,4,3h[6:1],4,5,4h[6:1],5,6,
{12}3<6[8:1],7,7,3,8,8,{24}3,2,1,8,7,6,2-6[8:1],1,8,7,6,5,
{8}2,,{24}8-4[8:1],1,2,3,4,5,8,,,,,,8-4[8:1],1,2,3,4,5,
{8}8,1,{12}1h[6:1],8,7,2h[6:1],1,8,3h[6:1],2,1,
{4}8-4[8:1],8>6[4:1],8,,
{16}1b,2,6,7,1,2,6,7,2b,3,7,8,2,3,7,8,
{16}3b,4,6,7,3,4,6,7,2b,3,5,6,2,3,5,6,
{16}1b,2,4,5,2b,3,5,6,3b,4,6,7,4b,5,7,8,
{16}4b,5,7,8,3b,4,6,7,2b,3,5,6,1b-5[8:1],2,4,5,
(130)
{32}1b,,,,,,,,1,2,3,4,1,8,7,6,1,2,3,4,1,8,7,6,1,2,3,4,1,8,7,6,
{32}1b,2b,3b,4b,5b,6b,7b,8b,1bp4[12:1]*q6[12:1],,,,,,,,1,,,,,,,,,,,,,,,,
&inote_6=(130)
{1},
{16},,,,,,,,,,,,,,4,5,
{16}4-8[8:1],,5,,3,3,,,2h[8:3],,7,7,,6,6,,
{16}5>2[8:1],,4,,6,6,,,7h[8:3],,1,1,,2,2,,
{16}1p5[8:1],,8,,2,2,,,3h[16:3],,5,5,,3,5,,
{16}6,4,6,4,3,7,3,7,2,8,2,8,1-5[12:1],7,1,7,
{8}1b>7[16:3],,,,8,8,8p5[16:5]*q3[16:5],8,
{8}8,,,,4,4,4-8[12:1],4,
{8}4b>6[16:3],,,,5,5,5,5,
{8}4,3,4,5,6,7,8w4[16:1],,
{16}8b,,,,3,2,1h[8:5],,4,,5,,6,,7,,
{16}8-4[8:1],,2,2,,3,3,,2-5[8:1],,5-2[8:1],,,,,,
{16}6,,7,7,,8,8h[8:5],,1,,5,,2,,4,,
{16}3,,3,,{32}3,5,3,5,3,5,3,5,{16}3b-8[32:1]*-8[32:1],,,,,,,,
{16}3,4,2,5,3,4,2,5,4,5,3,6,4,5,3,6,
{16}5,6,4,7,5,6,4,7h[16:7],5h[24:1],,4h[24:1],,5h[24:1],,4h[24:1],,
{16}7,8,5,3,7,8,5,3,8,1,6,4,8,1,6,4,
{16}1,2,6,4,1,2,6,4h[16:7],1h[24:1],,8h[24:1],,1h[24:1],,8h[24:1],,
{1}1b/2h[2:3],
{32},,,,,,,,,,,,,,,,8,1,2,3,4,5,6,7,8,1,2,3,4,5,6,7,
{48}8h[2:3]/3b>5[8:9],4b,5b,,,,,,,,,,,,,,,,,,,,,,,,,,,,,,,,,,,,,,,,,,,,,,
{32},,,,,,,,,,,,,,,,4,3,2,1,8,7,6,5,4q8[16:1],,,,,,,,
{16}4b,,1-6[8:1],2,3/6-1[8:1],,1-4[8:1],,4,,5,,5qq1[8:3],,,,
{16}6h[8:3]/5,,,,,,,,6h[16:1]/8h[16:1],,6h[16:1]/1h[16:1],,6h[16:1]/2h[16:1],,6h[16:1]/3h[16:1],,
{16}7-4[8:1],,4-7[8:1],4,7V15[4:1],,,,4,,4,3,2V48[8:2],,,,
{16}2/8-6[8:1],,,,,,,,5h[16:1]/3h[16:1],,6h[16:1]/2h[16:1],,5h[16:1]/3h[16:1],,6h[16:1]/2h[16:1],,
{16}35,,18,,{32}1,2,3,4,5,6,7,8,{16}1>4[12:1]*<6[12:1],,,,1,,,,
{16}7h[8:3],,6,,5,,4,,3h[16:2],,7,7,2h[16:2],,6,6,
{16}2h[4:1],,,,8,1,7,8,6h[4:1],,,,1,5,3,8,
{16}2q5[4:1],,4,4,,5,6,7,8,,3,5,4>2[16:1]*<6[16:1],6,,,
{64}4b,,,,,,,,{16}8-3[8:1],7,6/3-6[8:1],,8/2-5[8:1],,2,,2,,6<5[8:3],,,,
{16}6h[8:3],,,,,,,,6h[16:1]/5h[16:1],,4h[16:1]/7h[16:1],,3h[16:1]/8h[16:1],,1h[16:1]/2h[16:1],,
{16}6,5,7,4,6h[8:1],,4,7,5,6,4h[8:1],,6V84[4:1],5,4,7,
{16}6/4-2[8:1],,,,,,,,1h[16:1]/8h[16:1],,1h[16:1]/7h[16:1],,1h[16:1]/6h[16:1],,1h[16:1]/5h[16:1],,
{16}87,,6,5,,3,4,,12,,3,4,,6,5,,
{16}87,,2,1,,7,8,,65,,3,4,,6,5,,
{16}8-4[12:1],7,,1-5[12:1],8,,2-6[12:1],1,,3-7[12:1],2,,4,3,,5h[16:17],
{48}1,2,3,4,,6,7,8,1,2,3,4,,6,7,8,1,2,3,4,,6,7,8,1,2,3,4,,6,7,8,1,2,3,4,,6,7,8,1,2,3,4,,6,7,8,
{1}1b,,
