&title=鼓动,但只有星星
&artist=青木 千紘
&first=0.4
&des=ボグリボース
&lv_6=13+
&inote_6=(60.5)
{2}1>7[4:3],5<3[4:3],1>6[8:5],7>2[8:1],
{8}1>3[8:1],3<5[8:1],5<7[8:1],7>1[8:1],1-3[8:1],3-5[8:1],5-7[8:1],7-1[8:1],
1-4[8:1],4-7[8:1],7-2[8:1],2-5[8:1],5<5[4:1],1>5[8:1],1-4[16:1],4-1[16:1],
{16}1V75[8:1],,5-1[16:1],,5-3[16:1],3-1[16:1],1V75[8:1],,5<5[4:1],,,,1-6[16:1],,6-1[16:1],,
1V35[8:1],,5-1[16:1],,5-7[16:1],7-1[16:1],1V35[8:1],,5>5[4:1],,,,1V35[8:1],,5V31[8:1],,
{32}1V37[8:1],,,,7-1[16:1],,,,4V68[8:1],,,,8V64[8:1],,,,4V62[8:1],,,,2V46[8:1],,,,,,,,,,,,
1>5[8:1],2>6[8:1],3<7[8:1],4<8[8:1],1>1[4:1],2>2[4:1],3<3[4:1],4<4[4:1],{2},{8}2-6[8:1],6V42[8:1],
2V46[8:1],{16}8<6[16:1],8>2[16:1],8<5[16:1],8>3[16:1],8-5[16:1],8-3[16:1],8p5[16:3],8q3[8:1],,,,,,,
{32}8-5[16:1],,5-7[32:1],7-1[32:1],4-1[16:1],,1-3[32:1],3-5[32:1],,,,,,,,,2-7[16:1],,7-1[32:1],1-3[32:1],6-3[16:1],,3-5[32:1],5-7[32:1],,,,,,,,,
{16}1-3[16:1],5-7[16:1],1-4[16:1],5-8[16:1],1V75[16:1],5V31[16:1],1>4[64:3],5<8[64:3],1-5[16:1],,,,,,3-7[16:1],7-3[16:1],
{32}3>6[32:5],,1<4[32:5],8<3[32:5],{16},,4<2[8:3],,,7q3[16:3],,,,,,,,,
1V35[8:1],2V46[8:1],5-7[16:1],6-8[16:1],,,,,5V71[8:1],6V82[8:1],1-3[16:1],2-4[16:1],,,,,
1V75[8:1],8V64[8:1],5-3[16:1],4-2[16:1],,,,,5V31[8:1],4V28[8:1],1-7[16:1],8-6[16:1],,,,,
1-4[16:1],1b,3-6[16:1],3b,5-8[16:1],5b,7-2[16:1],7b,1-4[16:1],1b,3-6[16:1],3b,5-8[16:1],5b,7-2[16:1],7b,
1-4[16:1],2b,3-6[16:1],4b,5-8[16:1],6b,7-2[16:1],8b,1-4[16:1],2b,3-6[16:1],4b,5<1[4:1],6b,7>3[4:1],8b,,,,,4>4[4:1],,8<4[8:1],,
{32}4<4[4:1],5<5[4:1],6<6[4:1],7>7[4:1],{16},,,,,,8>7[32:7],,4<7[32:3],,8<8[4:1],,,,
{32}8>8[4:1],1>1[4:1],2>2[4:1],3<3[4:1],{16},,,,,,4<3[32:7],,8>3[32:3],,,,,,
4V68[8:1],5V71[8:1],8-2[16:1],1-3[16:1],,,,,8V24[8:1],1V35[8:1],4-6[16:1],5-7[16:1],,,,,
1>1[2:1],2>2[2:1],3<3[2:1],4<4[2:1],5<5[2:1],6<6[2:1],7>7[2:1],8>8[2:1],,,,,,,,,
1>3[16:1],1>4[16:1],1>5[16:1],1>6[16:1],1<7[16:1],1<6[16:1],1<5[16:1],1<4[16:1],
1>3[16:1],1>4[16:1],1>5[16:1],1>6[16:1],1-7[16:1],1V75[16:1],1V74[16:1],1V73[16:1],
1-3[16:1],1V35[16:1],1V36[16:1],1V37[16:1],1-7[16:1],1V75[16:1],1V74[16:1],1V73[16:1],
1-3[16:1],1V35[16:1],1V36[16:1],1V37[16:1],1-5[16:1],1b,1b,1b,{1}1b,
E
